<?xml version="1.0" standalone="no"?>
<!DOCTYPE svg PUBLIC "-//W3C//DTD SVG 1.1//EN" "http://www.w3.org/Graphics/SVG/1.1/DTD/svg11.dtd" >
<svg xmlns="http://www.w3.org/2000/svg">
<metadata>Generated by IcoMoon</metadata>
<defs>
<font id="kmb-editor-icons" horiz-adv-x="1024">
<font-face units-per-em="1024" ascent="960" descent="-64" />
<missing-glyph horiz-adv-x="1024" />
<glyph unicode="&#x20;" horiz-adv-x="512" d="" />
<glyph unicode="&#xe900;" glyph-name="payments" d="M144 810.667c-67.747 0-122.667-40.593-122.667-90.667v-58.667h981.333v58.667c0 50.074-54.921 90.667-122.667 90.667h-736zM1002.667 576h-981.333v-400c0-50.074 54.92-90.667 122.667-90.667h736c67.746 0 122.667 40.593 122.667 90.667v400zM896 234.667h-213.333v85.333h213.333v-85.333z" />
<glyph unicode="&#xe901;" glyph-name="text-edit" horiz-adv-x="1195" d="M130.583 960c-35.346 0-64-28.654-64-64s28.654-64 64-64h286.519v-812.297c0-35.345 28.653-64 64-64s64 28.655 64 64v812.297h286.519c35.348 0 64.003 28.654 64.003 64s-28.655 64-64.003 64h-701.038zM744.015 609.478c-35.346 0-64-28.653-64-64s28.654-64 64-64h111.256v-461.775c0-35.354 28.655-64 64-64 35.354 0 64 28.646 64 64v461.775h111.266c35.345 0 64 28.654 64 64s-28.655 64-64 64h-350.522z" />
<glyph unicode="&#xe902;" glyph-name="vk-square" d="M307.2 908.8c-141.385 0-256-114.615-256-256v-409.6c0-141.384 114.615-256 256-256h409.6c141.384 0 256 114.616 256 256v409.6c0 141.385-114.616 256-256 256h-409.6zM569.585 282.399c0-21.599-16.2-25.198-25.201-27h-39.598c-167.954-1.661-266.775 208.676-319.174 320.205-4.32 9.196-8.325 17.718-12.027 25.395-7.2 21.601 9 23.401 19.8 23.401h99c12.6-3.599 17.999-5.399 21.599-16.2 16.202-43.2 84.6-174.6 111.601-154.801 19.802 10.801 17.999 122.401 3.599 145.8-8.998 10.801-25.198 12.6-30.6 12.6-5.399 1.8 1.8 14.4 14.4 21.601 25.201 12.6 108.001 8.998 131.4 5.399 27.433-5.486 26.644-23.516 24.717-67.628-0.602-13.778-1.316-30.095-1.316-49.372 0-3.484-0.079-7.206-0.161-11.049-0.471-21.975-1.027-47.89 12.762-55.552 9.001-5.399 27-1.8 72 75.602 21.599 35.999 37.801 80.998 37.801 80.998 5.399 9.001 10.798 10.801 21.599 10.801h102.6c0 0 28.8 1.8 36.001-10.801 5.399-12.6-12.6-46.799-54.001-102.6-38.684-53.322-57.935-72.635-56.343-90.040 1.149-12.559 13.153-24.125 36.544-46.758 53.998-48.602 68.398-72 70.198-75.602 21.601-37.798-25.198-41.4-25.198-41.4l-91.802-1.8c0 0-19.799-1.8-45 14.4-13.468 9.216-26.657 24.015-39.237 38.131-19.366 21.727-37.286 41.833-52.562 37.471-25.201-7.201-23.401-61.202-23.401-61.202z" />
<glyph unicode="&#xe903;" glyph-name="cart-o" horiz-adv-x="931" d="M158.255 934.4l-139.424-185.899c-4.512-5.882-7.194-13.242-7.194-21.228v-651.636c0-33.946 13.486-66.504 37.491-90.508 24.004-24.008 56.562-37.492 90.509-37.492h651.636c33.946 0 66.504 13.484 90.508 37.492 24.008 24.003 37.492 56.562 37.492 90.508v651.636c0 0.524-0.014 1.046-0.037 1.567-0.326 7.38-2.942 14.164-7.154 19.659l-139.427 185.901c-6.591 8.79-16.938 13.964-27.927 13.964h-558.545c-10.988 0-21.335-5.173-27.927-13.964zM727.273 878.545l87.273-116.364h-698.182l87.273 116.364h523.636zM81.455 75.636v616.727h768v-616.727c0-15.43-6.13-30.231-17.040-41.142s-25.712-17.040-41.142-17.040h-651.636c-15.431 0-30.229 6.13-41.141 17.040s-17.041 25.712-17.041 41.142zM314.182 541.091c0-40.12 15.938-78.597 44.307-106.966s66.846-44.307 106.966-44.307c40.122 0 78.597 15.937 106.966 44.307s44.307 66.846 44.307 106.966c0 19.28 15.63 34.909 34.909 34.909s34.909-15.629 34.909-34.909c0-58.638-23.291-114.874-64.754-156.337s-97.699-64.754-156.337-64.754c-58.637 0-114.872 23.291-156.335 64.754s-64.756 97.699-64.756 156.337c0 19.28 15.629 34.909 34.909 34.909s34.909-15.629 34.909-34.909z" />
<glyph unicode="&#xe904;" glyph-name="dribbble-square" d="M281.6 908.8h460.068c127.27 0 231.132-103.863 231.132-231.132v-459.336c0-127.27-103.862-231.132-231.132-231.132h-460.068c-126.537 0-230.4 103.862-230.4 230.4v460.068c0 127.269 103.863 231.132 230.4 231.132zM776.778 336.092c7.314 17.554 13.164 35.84 16.822 54.126 3.658 19.016 5.852 38.034 5.852 57.782s-2.194 38.766-5.852 57.782c-3.658 18.286-9.508 36.572-16.822 54.126-7.316 17.554-16.092 33.646-26.332 49.006s-21.944 29.258-35.108 42.424c-13.166 13.164-27.064 24.868-42.424 35.108s-32.182 19.017-49.006 26.331c-17.554 7.314-35.84 13.166-54.126 16.823-19.016 3.657-38.034 5.851-57.782 5.851-19.018 0-38.766-2.194-57.782-5.851-18.286-3.657-36.572-9.509-54.126-16.823s-33.646-16.091-49.006-26.331c-15.36-10.24-29.258-21.944-42.424-35.108-13.164-13.166-24.868-27.064-35.108-42.424s-19.017-32.182-26.331-49.006c-7.314-17.554-13.166-35.84-16.823-54.126-3.657-19.016-5.851-38.034-5.851-57.782 0-19.018 2.194-38.766 5.851-57.782 3.657-18.286 9.509-36.572 16.823-54.126s16.091-33.646 26.331-49.006c10.24-15.36 21.944-29.258 35.108-42.424 13.166-13.164 27.064-24.868 42.424-35.108s32.182-19.016 49.006-26.332c17.554-7.314 35.84-13.164 54.126-16.822 19.016-3.658 38.034-5.852 57.782-5.852s38.766 2.194 57.782 5.852c18.286 3.658 36.572 9.508 54.126 16.822 17.554 7.316 33.646 16.092 49.006 26.332s29.258 21.944 42.424 35.108c13.164 13.166 24.868 27.064 35.108 42.424s19.016 32.182 26.332 49.006zM454.2 687.178c18.286 4.388 38.034 6.582 57.782 6.582 62.172 0 119.224-23.406 162.378-61.44-0.018-0.018-0.054-0.064-0.11-0.141l-0.284-0.387c-4.124-5.681-40.218-55.378-127.606-87.974-38.94 71.165-80.963 128.159-90.427 140.995v0c-0.847 1.149-1.434 1.943-1.733 2.365zM406.664 669.622c-68.754-32.182-119.222-95.086-135.314-171.154l0.847-0.003c11.886-0.056 111.665-0.517 225.894 29.99-42.422 75.338-87.77 136.778-91.428 141.166zM518.592 490.422c-122.058-36.687-239.352-35.264-251.441-35.116l-0.901 0.008v-8.046c0-62.902 24.136-120.686 62.902-163.84 0 0 67.292 119.954 199.68 162.378 1.462 0.366 3.108 0.914 4.754 1.462v0 0c1.646 0.548 3.292 1.098 4.756 1.464-3.901 9.265-8.453 18.529-13.005 27.794-2.276 4.631-4.552 9.265-6.746 13.896zM601.249 419.474c32.184-88.502 45.35-160.182 47.544-175.542 54.856 37.302 94.354 96.548 105.326 164.57-4.39 2.196-73.144 24.138-152.87 10.972zM555.154 408.504c0 0-0.732-0.732-1.464-0.732-144.822-50.468-192.364-152.138-192.364-153.6 41.69-32.184 93.622-51.932 150.674-51.932 33.646 0 66.56 7.314 95.816 19.748-3.656 21.212-17.554 96.55-52.662 186.516zM564.675 506.514c97.28 39.498 136.778 96.55 136.778 97.28 34.376-41.69 54.856-95.086 55.588-153.6-0.115 0.023-0.31 0.064-0.579 0.12-8.323 1.733-89.106 18.552-170.575 7.926-0.525 1.313-1.144 2.719-1.789 4.188-1.155 2.619-2.394 5.432-3.331 8.246-5.12 12.434-10.24 24.138-16.092 35.84z" />
<glyph unicode="&#xe905;" glyph-name="close" d="M1007.337 862.884c22.215 22.217 22.215 58.237 0 80.453s-58.237 22.216-80.452 0l-414.885-414.885-414.884 414.885c-22.217 22.216-58.237 22.216-80.453 0s-22.216-58.236 0-80.453l414.885-414.884-414.885-414.885c-22.216-22.215-22.216-58.237 0-80.452s58.236-22.215 80.453 0l414.884 414.885 414.885-414.885c22.215-22.215 58.237-22.215 80.452 0s22.215 58.237 0 80.452l-414.885 414.885 414.885 414.884z" />
<glyph unicode="&#xe906;" glyph-name="email" horiz-adv-x="1365" d="M683.634 307.615l635.87 612.528c-14.399 8.56-31.152 14.302-49.118 14.302h-1172.528c-23.389 0-44.821-9.082-61.513-22.932l647.29-603.897zM1364.833 838.852c-0.25-0.745-0.506-1.493-0.506-2.251v-777.078c0-1.223 0.142-2.441 0.279-3.658 0.182-1.593 0.364-3.174 0.228-4.75l-416.154 388.64 416.649 401.468c0.040-0.794-0.228-1.581-0.495-2.371zM715.019 214.352l170.086 163.647 432.145-403.416c-13.864-7.726-29.81-12.902-46.808-12.902h-1172.533c-11.448 0-22.381 2.839-32.565 6.502l418.871 403.746 169.626-158.066c8.55-7.97 19.439-11.941 30.333-11.941 11.122 0 22.238 4.147 30.845 12.43zM0.011 59.517v762.15l417.869-389.034-413.675-398.357c-2.183 8.061-4.194 16.492-4.194 25.242z" />
<glyph unicode="&#xe907;" glyph-name="telegram-square" d="M51.2 678.4c0 127.246 103.154 230.4 230.4 230.4h460.8c127.247 0 230.4-103.154 230.4-230.4v-460.8c0-127.247-103.153-230.4-230.4-230.4h-460.8c-127.246 0-230.4 103.153-230.4 230.4v460.8zM714.196 166.277l105.219 503.053c5.153 24.643-19.087 45.173-42.545 36.032l-616.285-240.159c-19.962-7.78-18.75-36.426 1.796-42.493l38.975-11.507c73.534-21.716 131.449-78.587 154.496-151.716l21.578-68.472c6.106-19.372 30.653-25.244 44.864-10.734 46.456 47.434 120.727 53.486 174.252 14.198l65.582-48.138c19.441-14.272 47.127-3.668 52.068 19.937zM352.676 396.001l338.043 209.659c7.775 4.823 15.734-5.88 8.881-11.937l-286.262-253.14c-2.852-2.522-4.669-6.016-5.092-9.8l-11.023-97.974c-0.358-3.195-4.833-3.62-5.786-0.548l-45.345 146.112c-2.076 6.689 0.632 13.937 6.584 17.628z" />
<glyph unicode="&#xe908;" glyph-name="cart" d="M670.167 188.145c0 26.332 20.874 47.649 46.659 47.649 25.48 0 46.351-21.317 46.351-47.649 0-26.020-20.872-47.337-46.351-47.337-25.784 0-46.659 21.317-46.659 47.337zM324.838 188.137c0 26.335 20.872 47.652 46.656 47.652 25.48 0 46.351-21.317 46.351-47.652 0-26.017-20.872-47.334-46.351-47.334-25.784 0-46.656 21.317-46.656 47.334zM763.185 634.527c18.724 0 31.002-6.582 43.282-21.002 12.278-14.42 14.426-35.11 11.663-53.888l-29.161-205.65c-5.524-39.529-38.676-68.654-77.66-68.654h-334.894c-40.827 0-74.593 31.977-77.97 73.326l-28.239 341.734-46.351 8.15c-12.279 2.194-20.873 14.42-18.725 26.96 2.149 12.853 14.12 21.317 26.706 19.436l73.209-11.286c10.437-1.912 18.112-10.659 19.034-21.317l5.832-70.222c0.922-10.063 8.901-17.587 18.724-17.587h414.551z" />
<glyph unicode="&#xe909;" glyph-name="pin" d="M992.883 638.529l-286.349 288.539c-37.35 43.909-105.826 43.909-149.402 0l-12.449-12.544c-18.674-18.816-31.126-50.181-31.126-75.273 0-25.089 12.449-56.453 31.126-75.273l-248.998-250.903c-93.375 43.908-211.648 25.088-286.349-50.181-12.449-12.544-12.449-31.364 0-43.908l211.648-213.265-186.746-188.179c-12.449-12.544-12.449-31.366 0-43.91 6.225-6.272 12.449-6.272 24.898-6.272s18.673 0 24.898 6.272l183.637 185.043 214.76-216.403c6.224 0 18.673-6.272 24.898-6.272s12.449 0 24.898 0c74.701 75.27 93.375 194.451 49.8 288.538l249 250.905c37.35-43.908 105.824-43.908 149.395 0l12.454 12.545c18.669 18.816 31.123 50.18 31.123 75.272 0.006 25.089-12.448 56.449-31.117 75.27zM949.306 538.164l-12.448-12.544c-12.448-18.817-43.578-18.817-62.246 0l-24.902 25.089c-12.448 12.544-31.123 12.544-43.571 0l-292.576-294.811c-12.449-12.544-12.449-25.088-6.225-37.638 43.575-62.726 37.35-144.269-6.225-206.995l-423.302 426.539c62.249 43.908 143.174 50.18 205.423 6.272 12.449-6.272 24.898-6.272 37.35 6.272l292.573 294.812c12.449 12.544 12.449 31.364 0 43.908l-24.898 25.089c-6.225 6.272-12.449 18.816-12.449 31.364s6.225 25.089 12.449 31.364l12.449 12.544c12.449 18.817 43.573 18.817 62.248 0l286.349-288.54c6.227-6.272 12.448-18.817 12.448-31.364s-6.221-25.085-12.448-31.361z" />
<glyph unicode="&#xe90a;" glyph-name="rename-new" horiz-adv-x="1067" d="M232.5 768.916c-29.455 0-53.333-23.878-53.333-53.333s23.878-53.333 53.333-53.333h166.931v-481.774c0-29.453 23.878-53.333 53.335-53.333 29.453 0 53.333 23.881 53.333 53.333v481.774h166.929c29.457 0 53.333 23.878 53.333 53.333s-23.876 53.333-53.333 53.333h-440.528zM605.248 568.167c-29.453 0-53.333-23.878-53.333-53.334 0-29.453 23.881-53.333 53.333-53.333h48.329v-281.109c0-29.453 23.881-53.333 53.333-53.333 29.457 0 53.333 23.881 53.333 53.333v281.109h48.329c29.453 0 53.333 23.881 53.333 53.333 0 29.455-23.881 53.334-53.333 53.334h-203.324z" />
<glyph unicode="&#xe90b;" glyph-name="whatsapp-square" d="M282.148 908.8h458.972c127.168 0 230.95-103.863 231.68-231.132v-459.336c0-127.27-103.78-231.132-230.948-231.132h-459.704c-127.167 0-230.948 103.862-230.948 230.4v460.068c0 127.269 103.781 231.132 230.948 231.132zM380.081 210.286c40.929-22.674 86.973-35.108 136.671-35.108 155.671 0 282.107 125.074 282.107 280.136 0 155.064-126.436 280.137-282.107 280.137s-282.108-125.073-282.108-280.137c0-52.662 14.617-102.4 40.196-144.822l-51.159-149.944 156.4 49.738zM279.949 455.314c0 130.194 105.974 235.52 236.795 235.52 130.824 0 237.527-105.326 238.257-235.52 0-130.194-106.703-235.52-237.524-235.52-48.236 0-93.548 13.896-130.821 38.766l-91.356-29.258 29.965 87.772c-28.503 38.766-45.315 87.040-45.315 138.24zM608.832 325.12c12.424 1.462 40.927 16.822 46.774 32.914 5.117 16.092 5.117 29.988 2.924 31.45-1.001 2.007-3.72 3.325-7.447 5.133-1.713 0.829-3.638 1.764-5.709 2.913-7.309 3.658-40.927 20.48-47.503 22.676-5.847 2.194-10.964 2.924-15.35-3.658-4.385-7.314-17.539-22.674-21.924-27.064-3.656-4.388-8.041-5.12-14.618-1.462-1.3 0.724-3.231 1.59-5.691 2.696-9.989 4.483-28.746 12.905-49.853 31.683-18.524 16.55-31.657 36.698-37.233 45.253-0.586 0.896-1.085 1.664-1.503 2.289-4.385 6.584-0.73 10.24 2.924 13.898 1.38 1.38 2.924 3.251 4.552 5.225 1.823 2.209 3.75 4.547 5.681 6.477 2.924 4.388 4.385 7.314 6.577 11.704 2.194 4.388 0.732 8.044-0.73 11.702s-15.347 37.302-21.194 51.2c-5.158 12.262-9.748 11.996-13.77 11.763-0.535-0.031-1.062-0.061-1.58-0.061-1.743 0-3.82 0.166-5.99 0.34-2.378 0.192-4.872 0.392-7.163 0.392-4.385 0-11.694-2.194-18.273-8.776-0.131-0.133-0.269-0.271-0.41-0.412-6.868-6.858-23.708-23.675-23.708-56.64 0-33.646 24.85-66.56 28.503-70.948 0.218-0.305 0.576-0.837 1.078-1.58 7.944-11.789 51.313-76.134 117.32-102.285 59.354-22.659 69.015-20.193 77.878-17.933 1.725 0.44 3.418 0.873 5.44 1.111z" />
<glyph unicode="&#xe90c;" glyph-name="services" d="M713.324 934.4v-71.669h115.4c66.872 0 119.588-55.853 119.588-122.88v-680.961c0-67.026-52.716-122.88-119.588-122.88h-657.933c-66.871 0-119.59 55.854-119.59 122.88v680.961c0 67.027 52.72 122.88 119.59 122.88h115.385v71.669c0 14.138 11.461 25.6 25.6 25.6s25.6-11.462 25.6-25.6v-71.669h324.748v71.669c0 14.138 11.464 25.6 25.6 25.6 14.141 0 25.6-11.462 25.6-25.6zM286.175 739.84v71.691h-115.385c-36.948 0-68.39-31.255-68.39-71.68v-680.961c0-40.422 31.442-71.68 68.39-71.68h657.933c36.946 0 68.388 31.258 68.388 71.68v680.961c0 40.425-31.442 71.68-68.388 71.68h-115.4v-71.691c0-14.138-11.459-25.6-25.6-25.6-14.136 0-25.6 11.462-25.6 25.6v71.691h-324.748v-71.691c0-14.138-11.462-25.6-25.6-25.6s-25.6 11.462-25.6 25.6zM194.3 570.869h375.961c14.141 0 25.6-11.462 25.6-25.6s-11.459-25.6-25.6-25.6h-375.961c-14.138 0-25.6 11.462-25.6 25.6s11.462 25.6 25.6 25.6zM168.7 399.345c0-14.141 11.462-25.6 25.6-25.6h610.938c14.136 0 25.6 11.459 25.6 25.6 0 14.136-11.464 25.6-25.6 25.6h-610.938c-14.138 0-25.6-11.464-25.6-25.6zM194.3 279.014h610.938c14.136 0 25.6-11.464 25.6-25.6 0-14.141-11.464-25.6-25.6-25.6h-610.938c-14.138 0-25.6 11.459-25.6 25.6 0 14.136 11.462 25.6 25.6 25.6z" />
<glyph unicode="&#xe90d;" glyph-name="instagram-square" d="M282.148 908.8h458.972c127.168 0 230.95-103.863 231.68-231.132v-459.336c0-127.27-103.78-231.132-230.948-231.132h-459.704c-127.167 0-230.948 103.862-230.948 230.4v460.068c0 127.269 103.781 231.132 230.948 231.132zM796.664 271.726v352.548c0 61.44-47.503 108.983-108.895 108.983h-352.269c-61.391 0-108.897-47.543-108.897-108.983v-352.548c0-61.44 47.506-108.984 108.897-108.984h352.269c61.391 0 108.895 47.544 108.895 108.984zM682.284 669.253c-26.496-0.2-47.872-21.752-47.872-48.271v-1.096c0-26.662 21.596-48.274 48.238-48.274 26.639 0 48.236 21.612 48.236 48.274v1.096c0 26.803-21.819 48.476-48.602 48.271zM511.644 549.668c33.62 0 63.585-16.822 81.856-42.422 11.694-16.824 19.003-37.304 19.003-59.246 0-55.588-45.315-100.938-100.859-100.938s-100.856 45.35-100.856 100.938c0 21.942 7.309 42.422 19.003 59.246 18.271 25.6 48.236 42.422 81.853 42.422zM668.767 448c0 20.48-4.385 43.886-11.694 58.514h88.433v-234.788c0-30.72-27.041-57.784-57.736-57.784h-352.269c-30.697 0-57.738 27.064-57.738 57.784v234.788h88.433c-7.309-14.628-11.694-37.302-11.694-58.514 0-87.040 70.162-157.258 157.133-157.258s157.133 70.95 157.133 157.258z" />
<glyph unicode="&#xe90e;" glyph-name="facebook-messenger" d="M513.521 890.621c-242.944 0-439.888-183.487-439.888-409.835 0-128.975 63.967-244.017 163.934-319.143v-156.264l149.779 82.713c39.972-11.13 82.319-17.139 126.178-17.139 242.944 0 439.888 183.487 439.888 409.835s-196.946 409.833-439.89 409.833zM557.237 338.71l-112.021 120.218-218.578-120.218 240.436 256.829 114.753-120.218 215.845 120.218-240.436-256.829z" />
<glyph unicode="&#xe90f;" glyph-name="telegram" horiz-adv-x="1252" d="M86.038 519.17c335.961 144.509 559.986 239.779 672.080 285.808 320.046 131.423 386.549 154.252 429.892 155.014 9.535 0.158 30.851-2.175 44.658-13.236 11.662-9.34 14.871-21.957 16.401-30.812 1.536-8.855 3.447-29.028 1.929-44.79-17.34-179.908-92.388-616.497-130.566-817.997-16.156-85.265-47.963-113.852-78.757-116.651-66.924-6.081-117.749 43.668-182.568 85.618-101.427 65.638-158.731 106.502-257.183 170.559-113.785 74.024-40.024 114.711 24.821 181.202 16.97 17.402 311.842 282.194 317.548 306.215 0.717 3.004 1.377 14.203-5.365 20.116-6.736 5.913-16.68 3.891-23.859 2.283-10.172-2.28-172.208-108.016-486.107-317.208-45.994-31.181-87.653-46.37-124.978-45.579-41.148 0.882-120.301 22.972-179.143 41.853-72.172 23.164-129.533 35.41-124.538 74.745 2.602 20.489 31.18 41.442 85.735 62.86z" />
<glyph unicode="&#xe910;" glyph-name="external-link" horiz-adv-x="973" d="M609.352 257.777c26.916-26.061 27.612-69.007 1.556-95.928l-87.716-90.604c-53.996-55.777-119.675-84.301-197.038-85.56-77.364-1.265-143.928 25.098-199.695 79.084s-84.287 119.675-85.562 197.064c-1.274 77.389 25.087 143.969 79.084 199.75l87.712 90.606c26.060 26.919 69.008 27.616 95.928 1.556s27.617-69.009 1.556-95.929l-87.497-90.383c-28.059-28.984-41.785-63.421-41.181-103.311 0.604-39.885 15.368-73.83 44.291-101.827 28.923-28.001 63.327-41.656 103.214-40.965s73.861 15.524 101.919 44.508l87.494 90.383c26.061 26.921 69.012 27.617 95.933 1.556zM426.207 292.552c-21.892-22.615-57.97-23.199-80.583-1.311-22.613 21.893-23.199 57.974-1.307 80.584l228.77 236.315c21.888 22.614 57.969 23.199 80.579 1.308 22.615-21.891 23.199-57.969 1.311-80.583l-228.769-236.313zM791.598 348.503c-26.061-26.921-69.007-27.617-95.928-1.556s-27.617 69.007-1.556 95.928l87.496 90.383c28.063 28.984 41.789 63.421 41.185 103.31-0.609 39.888-15.37 73.831-44.293 101.831s-63.329 41.654-103.214 40.964c-39.89-0.69-73.861-15.527-101.919-44.511l-87.497-90.383c-26.060-26.92-69.008-27.617-95.928-1.556s-27.617 69.009-1.556 95.929l87.712 90.605c53.996 55.778 119.675 84.299 197.038 85.562s143.928-25.099 199.695-79.085c55.767-53.986 84.285-119.673 85.565-197.063 1.27-77.389-25.088-143.973-79.089-199.753l-87.711-90.604z" />
<glyph unicode="&#xe911;" glyph-name="external-link-square" d="M307.208 908.802h409.6c141.385 0 256-114.615 256-256v-409.602c0-141.38-114.615-255.996-256-255.996h-409.6c-141.385 0-256 114.615-256 255.996v409.602c0 141.385 114.615 256 256 256zM214.887 201.502c47.060-47.313 122.783-46.72 169.129 1.323l154.471 157.687c30.562 31.245 42.244 76.89 30.566 119.407-3.422 12.378-16.026 19.584-28.151 16.090-12.122-3.49-19.183-16.354-15.761-28.732 7.202-26.295-0.021-54.507-18.91-73.839l-154.469-157.666c-28.882-29.487-75.712-29.491-104.598-0.009-28.887 29.478-28.892 77.286-0.012 106.773l154.473 157.687c10.107 10.347 22.948 17.459 36.953 20.467l0.448 0.098c12.305 2.778 20.070 15.208 17.348 27.764-2.718 12.559-14.895 20.488-27.196 17.71-22.664-4.874-43.446-16.381-59.81-33.11l-154.471-157.666c-0.439-0.444-0.876-0.887-1.307-1.335-46.346-48.043-45.766-125.338 1.295-172.651zM783.518 494.916c0.439 0.444 0.875 0.887 1.31 1.335 46.345 48.045 45.764 125.341-1.297 172.653-47.066 47.31-122.786 46.716-169.131-1.326l-154.47-157.712c-30.562-31.249-42.247-76.89-30.566-119.407 3.422-12.378 16.021-19.584 28.147-16.090 12.126 3.49 19.183 16.354 15.761 28.732-7.198 26.295 0.026 54.507 18.91 73.839l154.475 157.69c28.877 29.489 75.708 29.494 104.593 0.013 28.89-29.484 28.894-77.289 0.013-106.776l-154.47-157.713c-10.129-10.338-22.985-17.451-36.996-20.471-10.517-2.287-18.035-11.759-18.057-22.733-0.017-12.864 10.176-23.3 22.775-23.322 1.591 0 3.183 0.162 4.745 0.486 22.656 4.877 43.43 16.384 59.785 33.114l154.475 157.687z" />
<glyph unicode="&#xe912;" glyph-name="coupon" d="M968.304 397.338l-313.856-312.832-505.139 505.139 313.036 312.114c31.642 33.075 37.683 47.616 70.861 47.616h420.557c33.178 0 60.109-26.829 60.109-59.904v-419.225c-0.102-33.075-18.944-46.285-45.568-72.909zM788.182 723.993c-48.947 48.947-128.205 48.947-177.050 0-48.947-48.947-48.947-128.204 0-177.151s128.205-48.947 177.050 0c48.845 48.845 48.845 128.204 0 177.151zM655.37 591.078c-24.474 24.474-24.474 64.102 0 88.575s64.102 24.474 88.474 0c24.474-24.474 24.474-64.102 0-88.575-24.371-24.474-64-24.474-88.474 0zM610.006 40.269l-55.706-55.603c-50.79-50.688-133.222-50.688-184.013 0l-321.945 321.024c-50.79 50.688-50.79 132.813 0 183.398l56.525 56.32 505.139-505.139z" />
<glyph unicode="&#xe913;" glyph-name="gift" d="M928.022 435.702h-391.578v269.312h-48.947v-269.312h-391.679c-40.448 0-73.318 32.973-73.318 73.523v171.315c0 40.55 32.87 73.421 73.421 73.421h88.269c-20.787 24.269-39.322 56.73-39.322 97.894 0 94.925 97.894 97.894 97.894 97.894 148.275 0 233.267-97.28 270.643-154.624 38.81 59.597 123.392 154.624 267.776 154.624 0 0 97.894-3.072 97.894-100.762 0-39.014-15.77-70.656-34.509-95.027h83.456c40.55 0 73.421-32.87 73.421-73.421v-171.315c0-40.55-32.87-73.523-73.421-73.523zM267.236 876.329c-52.531 0-48.947-24.474-48.947-24.474 0-37.888 31.437-71.987 65.229-97.894h169.062c-56.73 122.47-135.884 122.368-185.343 122.368zM756.707 874.179c-48.64 0-126.054 0-182.579-120.218h173.568c30.925 25.907 58.061 58.778 58.061 95.027-0.102 0 3.584 25.19-49.050 25.19zM487.498-53.77h-342.63c-40.55 0-73.42 32.87-73.42 73.421v367.104h416.050v-440.525zM536.445 386.755h391.578v-367.104c0-40.55-32.87-73.421-73.421-73.421h-318.157v440.525z" />
<glyph unicode="&#xe914;" glyph-name="note" horiz-adv-x="1092" d="M1014.835 809.467h-78.534v-7.209c0-41.725-33.86-75.585-75.694-75.585h-7.1c-41.725 0-75.694 33.86-75.694 75.585v7.209h-152.48v-7.209c0-41.725-33.86-75.585-75.694-75.585h-7.1c-41.725 0-75.694 33.86-75.694 75.585v7.209h-152.371v-7.209c0-41.725-33.86-75.585-75.585-75.585h-7.1c-41.725 0-75.694 33.86-75.694 75.585v7.209h-78.425c-36.809 0-66.737-29.928-66.737-66.737v-715.218c0-36.809 29.928-66.737 66.737-66.737h692.606c-3.604 9.066-5.68 18.896-5.68 28.945v183.064c0 57.999 47.186 105.185 105.185 105.185h182.627c10.267 0 20.098-1.857 28.945-5.571v470.55c0.109 36.809-29.71 66.519-66.519 66.519zM537.624 172.783h-233.199c-17.367 0-31.567 14.090-31.567 31.567 0 17.367 14.090 31.567 31.567 31.567h233.199c17.367 0 31.567-14.090 31.567-31.567 0-17.367-14.199-31.567-31.567-31.567zM771.915 346.126h-466.398c-17.367 0-31.567 14.090-31.567 31.567s14.090 31.567 31.567 31.567h466.288c17.367 0 31.567-14.090 31.567-31.567s-14.090-31.567-31.457-31.567zM771.915 519.468h-466.398c-17.367 0-31.567 14.090-31.567 31.567 0 17.367 14.090 31.567 31.567 31.567h466.288c17.367 0 31.567-14.090 31.567-31.567 0-17.367-14.090-31.567-31.457-31.567zM1052.477 228.932h-182.736c-31.020 0-56.143-25.122-56.143-56.143v-182.627c0-25.013 30.256-37.574 47.951-19.77l210.807 210.807c5.68 5.68 8.301 12.78 8.301 19.661-0.109 14.199-11.36 28.071-28.18 28.071zM853.524 764.455h7.1c20.972 0 37.792 16.93 37.792 37.792v95.027c0 20.972-16.93 37.792-37.792 37.792h-7.1c-20.972 0-37.792-16.93-37.792-37.792v-95.027c0-20.862 16.93-37.792 37.792-37.792zM542.594 764.455h7.1c20.972 0 37.792 16.93 37.792 37.792v95.027c0 20.972-16.93 37.792-37.792 37.792h-7.1c-20.972 0-37.792-16.93-37.792-37.792v-95.027c0-20.862 16.93-37.792 37.792-37.792zM231.659 764.455h7.1c20.971 0 37.792 16.93 37.792 37.792v95.027c0 20.972-16.93 37.792-37.792 37.792h-7.1c-20.972 0-37.792-16.93-37.792-37.792v-95.027c0-20.862 16.93-37.792 37.792-37.792z" />
<glyph unicode="&#xe915;" glyph-name="shipping" horiz-adv-x="1422" d="M1359.707 897.624c21.35-13.066 20.395 0.956 20.395-301.464 0-295.718 0.956-280.756-17.527-297.953l-8.602-7.964-332.692-0.956c-367.115-0.956-343.535-1.911-358.827 19.115l-7.333 10.513-0.956 270.228c-0.637 179.090 0.319 274.376 2.554 282.664 1.911 7.018 7.959 16.247 14.336 21.982l11.469 9.885h333.648c320.91 0.014 333.961-0.314 343.535-6.048zM578.623 753.91c21.669-14.336 20.713 0 20.713-276.288v-249.515h189.616c104.203 0 189.605-0.643 189.605-1.269s-4.779-8.602-10.843-17.533c-18.159-27.085-24.86-48.754-26.772-86.994l-1.599-34.423h-505.733v23.893c0 60.553-25.491 111.223-72.649 143.087-67.557 46.205-154.241 38.559-212.24-18.159-33.137-32.506-49.712-72.647-49.712-120.775v-28.046h-8.916c-14.664 0-36.645 13.067-43.022 25.492-5.106 10.2-5.42 23.268-4.779 163.157l0.956 151.688 9.557 14.022c7.004 9.871 16.889 17.531 35.048 27.402 42.066 22.623 43.663 24.862 104.202 145.626 29.955 59.597 57.685 112.803 61.822 118.224 4.151 5.734 14.978 14.022 24.22 18.487l16.576 8.288h137.038c131.29 0.014 137.665-0.314 146.909-6.362zM307.441 698.137c-6.69-5.093-17.203-27.088-46.202-97.198-20.712-50.026-37.929-93.047-37.929-95.915s2.867-8.916 6.69-13.708l6.376-8.287h124.6c109.309 0 125.242 0.642 133.202 5.093 18.801 11.154 19.115 14.021 19.115 117.268 0 86.043-0.314 94.331-5.734 97.198-3.509 2.225-38.243 3.181-98.468 2.553-87.955-0.628-93.375-0.942-101.649-7.004zM1134.063 240.566c36.016-7.020 76.487-40.795 90.18-75.531 5.734-14.336 7.333-24.536 7.646-48.441 0-26.448-0.956-32.512-8.602-48.759-23.893-50.978-66.6-77.443-121.407-74.889-47.798 1.911-87.956 28.689-108.026 71.708-43.662 92.735 38.548 195.982 140.208 175.912zM294.984 239.61c80.936-19.758 121.732-113.761 79.667-185.151-36.645-62.783-121.732-81.579-181.001-40.158-22.309 15.935-39.198 38.872-47.158 65.007-28.999 93.702 54.176 183.239 148.492 160.302zM1358.131 220.848c17.527-11.793 21.982-24.218 21.982-63.090 0-29.958-0.956-35.049-7.333-44.294-13.71-20.395-20.713-23.262-60.865-24.86l-36.022-1.269-1.593 34.418c-1.911 38.884-8.289 60.553-26.778 87.626-6.047 8.932-10.837 16.89-10.837 17.533s24.86 1.269 55.444 1.269c51.979 0 55.802-0.313 66.002-7.333z" />
<glyph unicode="&#xe916;" glyph-name="facebook-messenger-square" d="M898.892 960c69.050 0 125.108-56.060 125.108-125.108v-773.784c0-69.048-56.060-125.108-125.108-125.108h-773.784c-69.048 0-125.108 56.060-125.108 125.108v773.784c0 69.048 56.058 125.108 125.108 125.108h773.784zM512 808.432c-208.45 0-370-152.692-370-358.91 0-107.874 44.222-201.080 116.212-265.478 6.028-5.432 9.678-12.952 9.976-21.066l2.010-65.812c0.67-20.994 22.332-34.618 41.542-26.204l73.402 32.382c6.254 2.754 13.178 3.276 19.73 1.49 33.722-9.304 69.682-14.22 107.128-14.22 208.45 0 370 152.692 370 358.908 0 206.148-161.442 358.806-370 358.91zM289.852 344.552l108.69 172.42c17.272 27.394 54.348 34.244 80.254 14.814l86.432-64.842c7.966-5.958 18.836-5.884 26.728 0.072l116.732 88.594c15.558 11.834 35.958-6.85 25.46-23.378l-108.618-172.344c-17.272-27.396-54.344-34.244-80.252-14.814l-86.432 64.842c-7.968 5.958-18.836 5.882-26.726-0.074l-116.808-88.666c-15.506-11.796-35.822 6.724-25.46 23.376z" />
<glyph unicode="&#xe917;" glyph-name="verified" d="M512 960c-282.77 0-512-229.23-512-512s229.23-512 512-512c282.77 0 512 229.23 512 512v0c0 282.77-229.23 512-512 512v0zM767.431 566.101l-285.582-313.458c-10.244-11.031-24.827-17.91-41.017-17.91s-30.773 6.88-40.985 17.875l-0.032 0.035-141.084 141.198c-10.449 10.171-16.931 24.372-16.931 40.087 0 15.937 6.667 30.317 17.363 40.503l0.023 0.022c10.324 9.374 24.098 15.113 39.212 15.113 15.701 0 29.955-6.193 40.453-16.27l-0.020 0.019 99.897-99.271 244.622 269.084c10.579 11.165 25.513 18.112 42.069 18.112 14.376 0 27.529-5.238 37.654-13.911l-0.079 0.066c11.869-10.535 19.311-25.831 19.311-42.865 0-14.841-5.649-28.363-14.914-38.532l0.041 0.046z" />
<glyph unicode="&#xe918;" glyph-name="settings" d="M473.602 858.762c10.184 10.184 23.996 15.905 38.398 15.905s28.214-5.721 38.398-15.905c10.184-10.184 15.906-23.996 15.906-38.398v-3.837c0.075-18.861 5.663-37.288 16.080-53.014 10.382-15.683 25.116-27.995 42.394-35.432 17.641-7.753 37.2-10.059 56.161-6.621 19.018 3.447 36.562 12.512 50.375 26.024v-0.001l2.714 2.715c5.046 5.049 11.036 9.054 17.624 11.787 6.593 2.733 13.659 4.139 20.799 4.139 7.134 0 14.199-1.406 20.793-4.139s12.584-6.738 17.624-11.787l0.023-0.023c5.052-5.043 9.057-11.032 11.787-17.624s4.142-13.659 4.142-20.795c0-7.136-1.411-14.202-4.142-20.795s-6.736-12.582-11.787-17.625l-0.011-0.011-2.702-2.706c-13.511-13.814-22.579-31.359-26.027-50.373-3.078-16.978-1.547-34.431 4.369-50.561 0.256-3.017 0.996-5.979 2.196-8.772 7.43-17.336 19.763-32.121 35.493-42.535 15.724-10.414 34.15-16.003 53.009-16.078h7.151c14.399 0 28.211-5.721 38.394-15.905s15.906-23.996 15.906-38.398c0-14.402-5.723-28.214-15.906-38.398s-23.996-15.906-38.394-15.906h-3.84c-18.859-0.075-37.285-5.663-53.015-16.080-15.684-10.382-27.995-25.116-35.43-42.394-7.754-17.641-10.058-37.2-6.622-56.161 3.447-19.018 12.516-36.562 26.027-50.375v0l0.222-0.222 2.48-2.486 0.011-0.006c5.046-5.046 9.057-11.036 11.787-17.624 2.731-6.593 4.142-13.659 4.142-20.799 0-7.134-1.411-14.199-4.142-20.793s-6.741-12.584-11.787-17.624l-0.023-0.023c-5.040-5.052-11.031-9.057-17.624-11.787s-13.659-4.142-20.793-4.142c-7.14 0-14.205 1.411-20.799 4.142s-12.578 6.736-17.624 11.787l-2.714 2.714c-13.818 13.511-31.363 22.579-50.375 26.027-18.961 3.436-38.519 1.132-56.161-6.622-17.277-7.435-32.011-19.752-42.394-35.436-10.416-15.724-16.003-34.15-16.082-53.009v-7.151c0-14.399-5.72-28.211-15.903-38.394s-23.996-15.906-38.398-15.906c-14.402 0-28.214 5.723-38.398 15.906s-15.905 23.996-15.905 38.394v3.726h0.007l-0.015 0.666c-0.454 19.399-6.733 38.218-18.023 53.999-11.115 15.542-26.58 27.438-44.437 34.19-17.463 7.515-36.759 9.717-55.478 6.326-19.014-3.447-36.559-12.516-50.373-26.027h-0.001l-2.715-2.714c-5.043-5.046-11.032-9.057-17.625-11.787s-13.658-4.142-20.795-4.142c-7.136 0-14.202 1.411-20.795 4.142s-12.581 6.741-17.624 11.787l-0.023 0.023c-5.049 5.040-9.054 11.031-11.787 17.624s-4.139 13.659-4.139 20.793c0 7.14 1.406 14.205 4.139 20.799s6.738 12.578 11.787 17.624l2.714 2.714c13.513 13.818 22.577 31.363 26.024 50.375 3.439 18.961 1.133 38.519-6.621 56.161-7.437 17.277-19.749 32.011-35.432 42.394-15.725 10.416-34.153 16.003-53.013 16.082h-7.147c-14.403 0-28.215 5.72-38.398 15.903s-15.905 23.996-15.905 38.398c0 14.402 5.721 28.214 15.905 38.398s23.996 15.905 38.398 15.905h3.723v-0.007l0.665 0.015c19.401 0.454 38.216 6.733 54 18.023 15.54 11.115 27.435 26.58 34.191 44.436 7.514 17.463 9.717 36.76 6.323 55.479-3.447 19.014-12.512 36.559-26.024 50.373l0.001 0.001-0.221 0.222-2.494 2.493c-5.049 5.043-9.054 11.032-11.787 17.625s-4.139 13.658-4.139 20.795c0 7.136 1.406 14.203 4.139 20.795s6.738 12.581 11.787 17.624l0.023 0.023c5.043 5.049 11.032 9.054 17.624 11.787s13.658 4.139 20.795 4.139c7.136 0 14.202-1.406 20.795-4.139s12.582-6.738 17.625-11.787l0.011-0.011 2.481-2.484 0.224-0.219c13.814-13.513 31.359-22.577 50.373-26.024 16.978-3.079 34.431-1.552 50.561 4.365 3.017 0.259 5.978 0.999 8.772 2.196 17.336 7.43 32.121 19.767 42.535 35.492s16.003 34.153 16.078 53.013v0 7.147c0 14.403 5.721 28.215 15.905 38.398zM512 931.556c-29.49 0-57.772-11.715-78.624-32.567s-32.568-49.135-32.568-78.625v-6.972c-0.041-7.748-2.342-15.316-6.62-21.776-3.441-5.195-8.040-9.492-13.41-12.568-2.648-0.356-5.238-1.084-7.694-2.168-7.28-3.213-15.354-4.171-23.183-2.752-7.785 1.411-14.971 5.11-20.644 10.621l-2.357 2.357c-10.324 10.333-22.584 18.53-36.077 24.124-13.499 5.596-27.968 8.476-42.58 8.476s-29.082-2.88-42.58-8.476c-13.492-5.593-25.75-13.789-36.073-24.12-10.334-10.325-18.534-22.586-24.128-36.081-5.596-13.499-8.476-27.968-8.476-42.58s2.88-29.081 8.476-42.58c5.593-13.494 13.791-25.753 24.124-36.077l2.357-2.357c5.511-5.673 9.21-12.86 10.621-20.644 1.419-7.829 0.461-15.904-2.752-23.183-0.242-0.548-0.466-1.104-0.674-1.666-2.758-7.5-7.708-13.996-14.208-18.644-6.421-4.593-14.061-7.172-21.947-7.414h-3.346c-29.49 0-57.772-11.715-78.625-32.567s-32.567-49.134-32.567-78.624c0-29.49 11.715-57.772 32.567-78.627 20.853-20.85 49.135-32.563 78.625-32.563h6.967c7.749-0.040 15.32-2.344 21.782-6.622 6.475-4.289 11.555-10.377 14.614-17.516h-0.001l0.123-0.279c3.213-7.276 4.171-15.354 2.752-23.182-1.411-7.782-5.11-14.973-10.621-20.645l-2.346-2.344c-10.338-10.325-18.54-22.591-24.135-36.090s-8.476-27.967-8.476-42.581c0-14.609 2.88-29.082 8.476-42.576 5.592-13.488 13.785-25.748 24.113-36.068 10.326-10.337 22.59-18.54 36.088-24.138 13.499-5.592 27.968-8.476 42.58-8.476s29.082 2.884 42.58 8.476c13.494 5.598 25.753 13.796 36.078 24.127l2.357 2.355c5.673 5.513 12.86 9.21 20.644 10.621 7.829 1.422 15.904 0.461 23.183-2.748 0.548-0.245 1.104-0.472 1.666-0.677 7.5-2.759 13.996-7.708 18.644-14.205 4.593-6.423 7.172-14.063 7.414-21.948v-3.351c0-29.486 11.715-57.771 32.567-78.62 20.853-20.855 49.134-32.569 78.624-32.569s57.772 11.713 78.627 32.569c20.85 20.85 32.563 49.135 32.563 78.62v6.969c0.040 7.748 2.344 15.32 6.622 21.783 4.289 6.474 10.377 11.554 17.516 14.615v0l0.279 0.119c7.276 3.214 15.354 4.176 23.182 2.753 7.782-1.411 14.973-5.109 20.645-10.621l2.344-2.344c10.325-10.342 22.591-18.54 36.090-24.138 13.5-5.592 27.967-8.476 42.581-8.476 14.609 0 29.082 2.884 42.576 8.476s25.754 13.79 36.079 24.127v0c10.331 10.325 18.529 22.585 24.127 36.073 5.592 13.5 8.476 27.972 8.476 42.581 0 14.615-2.884 29.082-8.476 42.581-5.598 13.5-13.801 25.759-24.138 36.090l-2.344 2.344c-5.513 5.672-9.21 12.857-10.621 20.645-1.422 7.828-0.461 15.9 2.748 23.182h0.006l0.119 0.279c3.061 7.14 8.141 13.227 14.615 17.516 6.463 4.278 14.029 6.576 21.783 6.622h3.658c29.486 0 57.771 11.713 78.62 32.563 20.855 20.855 32.569 49.136 32.569 78.626s-11.713 57.772-32.569 78.624c-20.85 20.853-49.135 32.568-78.62 32.568h-6.975c-7.748 0.041-15.314 2.342-21.777 6.62-5.194 3.441-9.495 8.040-12.567 13.41-0.358 2.648-1.087 5.238-2.167 7.694-3.214 7.28-4.176 15.354-2.753 23.183 1.411 7.785 5.109 14.972 10.621 20.645l2.344 2.345c10.342 10.327 18.54 22.59 24.138 36.089 5.592 13.499 8.476 27.967 8.476 42.58s-2.884 29.082-8.476 42.58c-5.598 13.499-13.796 25.762-24.138 36.088-10.32 10.328-22.574 18.521-36.062 24.113-13.5 5.596-27.972 8.476-42.581 8.476-14.615 0-29.082-2.88-42.581-8.476s-25.759-13.797-36.090-24.135l-2.344-2.345c-5.672-5.512-12.857-9.21-20.645-10.622-7.828-1.419-15.9-0.461-23.182 2.752v0.002l-0.279 0.12c-7.14 3.059-13.227 8.139-17.516 14.614-4.278 6.462-6.576 14.032-6.622 21.782v3.657c0 29.49-11.713 57.772-32.563 78.625-20.855 20.852-49.136 32.567-78.626 32.567zM417.914 448c0 51.962 42.124 94.086 94.086 94.086s94.083-42.124 94.083-94.086c0-51.962-42.121-94.083-94.083-94.083s-94.086 42.121-94.086 94.083zM512 590.222c-78.547 0-142.222-63.675-142.222-142.222s63.675-142.222 142.222-142.222c78.546 0 142.222 63.676 142.222 142.222s-63.676 142.222-142.222 142.222z" />
<glyph unicode="&#xe919;" glyph-name="show-o" d="M97.69 431.756c19.939-26.941 49.537-62.863 88.041-98.7 77.369-72.014 187.731-141.056 326.252-141.056s248.885 69.042 326.249 141.056c38.51 35.838 68.103 71.76 88.042 98.7 7.504 10.136 13.605 18.958 18.271 25.969-4.747 7.601-11.052 17.293-18.864 28.488-20.005 28.66-49.664 66.836-88.225 104.902-77.597 76.608-187.731 149.455-325.473 149.455s-247.875-72.847-325.476-149.455c-38.562-38.066-68.221-76.242-88.221-104.902-7.812-11.195-14.116-20.887-18.866-28.488 4.666-7.011 10.77-15.833 18.271-25.969zM987.414 457.143l32.161 17.41c0 0 0.015-0.027-32.161-17.41zM1019.107 438.9l-0.051-0.089-0.146-0.259-0.497-0.84c-0.41-0.701-0.995-1.682-1.748-2.922-1.499-2.481-3.686-6.006-6.532-10.427-5.698-8.837-14.080-21.278-25.066-36.121-21.928-29.63-54.462-69.137-96.995-108.728-84.714-78.844-212.065-160.658-376.088-160.658s-291.377 81.815-376.086 160.658c-42.535 39.591-75.068 79.097-96.998 108.728-10.986 14.843-19.367 27.284-25.063 36.121-2.85 4.421-5.032 7.946-6.536 10.427-0.752 1.241-1.336 2.221-1.749 2.922l-0.492 0.84-0.15 0.259-0.086 0.149c-6.291 10.979-6.427 24.493-0.412 35.626 0 0-0.033-0.061 32.143-17.444l-32.143 17.444 0.195 0.358 0.484 0.876c0.408 0.734 0.985 1.763 1.732 3.069 1.493 2.611 3.663 6.33 6.5 10.998 5.672 9.332 14.025 22.483 24.982 38.184 21.87 31.34 54.34 73.164 96.818 115.098 84.476 83.392 212.059 170.545 376.861 170.545s292.383-87.153 376.863-170.545c42.474-41.934 74.942-83.758 96.819-115.098 10.949-15.701 19.31-28.853 24.978-38.184 2.838-4.668 5.010-8.387 6.502-10.998 0.746-1.306 1.324-2.335 1.726-3.069l0.49-0.876 0.146-0.268 0.066-0.124c6.012-11.134 5.822-24.673-0.468-35.653zM987.414 457.143c31.729-18.182 31.693-18.243 31.693-18.243l-31.693 18.243zM418.893 457.143c0 54.72 42.731 97.142 93.091 97.142s93.090-42.423 93.090-97.142c0-54.72-42.731-97.142-93.090-97.142s-93.091 42.423-93.091 97.142zM511.984 627.428c-92.861 0-166.234-77.308-166.234-170.285s73.373-170.285 166.234-170.285c92.861 0 166.233 77.308 166.233 170.285s-73.373 170.285-166.233 170.285z" />
<glyph unicode="&#xe91a;" glyph-name="diamond" horiz-adv-x="1229" d="M345.884 556.1h-341.484l546.445-580.604-204.962 580.604zM1200.046 556.1h-341.484l-204.964-580.604 546.447 580.604zM170.066 945.3l-170.066-340.256h340.255l-170.189 340.256zM1034.189 945.2l-170.189-340.256h340.255l-170.066 340.256zM602.097 945.2l-207.297-340.256h414.718l-207.421 340.256zM556.129 960h-340.129l157.9-293.806 182.229 293.806zM988.129 960h-340.132l182.354-293.806 157.778 293.806zM809.395 556.1h-414.595l207.297-587.486 207.299 587.486z" />
<glyph unicode="&#xe91b;" glyph-name="flame" horiz-adv-x="853" d="M437.751 953.845c5.875-27.894 2.935-49.080-10.283-76.349-12.585-25.795-23.491-39.434-72.786-91.443-50.34-53.279-67.748-73.411-86.415-101.1-42.578-62.71-61.245-127.939-58.522-203.665 1.044-29.154-0.215-30.208-17.203-13.21-12.79 13.005-27.689 41.741-33.772 65.445-6.707 26.010-4.618 65.649 4.403 87.88 4.403 10.701-26.010-7.547-47.196-28.109-44.042-42.998-73.196-108.226-79.698-178.699-6.707-70.050 13.629-142.622 56.842-202.825 6.922-9.647 11.95-18.044 11.325-18.667-1.679-1.681-23.91 3.78-38.799 9.647-22.446 9.020-31.672 15.104-49.080 32.294l-16.568 16.572 1.464-20.553c4.403-65.651 32.297-128.576 76.554-172.412 60.826-59.985 158.566-95.019 283.781-101.303l13.844-0.841-12.37 13.21c-46.141 49.502-69.212 118.089-60.826 182.059 6.287 48.239 28.109 97.946 56.627 128.99l8.602 9.442-1.464-12.582c-2.939-21.811-1.26-61.453 3.144-82.014 10.066-45.517 31.252-83.055 57.047-101.521l6.923-5.035-1.463 5.239c-7.979 28.949-9.863 61.453-4.621 88.303 1.681 8.384 6.925 28.527 11.541 44.676 14.891 51.179 15.727 80.751 3.145 118.507-5.867 17.408-22.027 49.502-33.353 66.91-4.198 6.080-6.922 11.742-6.502 12.164 2.099 2.099 36.497-16.149 54.323-28.949 74.876-53.278 116.407-152.482 112.004-268.258-2.517-62.084-18.249-123.115-41.737-159.612l-7.343-11.537 18.044 0.631c95.855 3.985 166.95 29.577 216.666 78.656 42.159 41.523 67.75 99.622 78.438 177.856 7.343 52.646 4.198 137.178-7.966 213.517l-4.403 27.686-5.039-15.104c-12.164-36.698-29.786-64.806-54.106-87.253-12.382-11.119-33.771-25.169-35.657-23.070-0.623 0.418 3.145 10.701 8.388 22.865 11.537 27.473 22.647 63.97 27.473 91.034 5.457 30.831 5.039 81.173-1.045 109.691-19.076 89.999-78.007 159.427-168.201 198.226-9.865 4.198-18.671 7.762-19.294 7.762s2.304-5.868 6.716-13.005c32.094-54.108 33.98-104.663 4.608-136.54-18.667-20.347-46.98-23.91-77.393-9.861-32.512 14.889-46.562 42.578-39.433 77.394 3.358 15.524 6.080 22.026 29.154 65.229 48.452 91.443 45.935 152.484-7.765 192.543-11.742 8.602-35.234 20.767-47.194 24.535-4.826 1.475-5.030 1.27-3.563-5.448z" />
<glyph unicode="&#xe91c;" glyph-name="time" d="M512 960c-282.77 0-512-229.23-512-512s229.23-512 512-512c282.769 0 512 229.231 512 512s-229.231 512-512 512zM60.235 448c0 249.503 202.262 451.765 451.765 451.765 249.501 0 451.765-202.262 451.765-451.765 0-249.501-202.264-451.765-451.765-451.765-249.503 0-451.765 202.264-451.765 451.765zM511.999 767.247c-16.634 0-30.118-13.484-30.118-30.118v-289.129c0-11.408 6.445-21.836 16.648-26.938l192.755-96.376c14.878-7.439 32.967-1.41 40.406 13.469s1.41 32.968-13.469 40.406l-176.105 88.053v270.516c0 16.633-13.484 30.118-30.118 30.118z" />
<glyph unicode="&#xe91d;" glyph-name="upload" d="M488.727 857.341v-564.51c0-12.856 10.422-23.273 23.273-23.273s23.273 10.417 23.273 23.273v564.363l218.782-218.79c9.090-9.088 23.827-9.089 32.912 0 9.090 9.088 9.090 23.824 0 32.913l-257.448 257.457c-4.264 4.875-10.533 7.954-17.52 7.954-0.014 0-0.023 0-0.037 0s-0.023 0-0.037 0c-6.172 0-12.093-2.452-16.454-6.817l-258.587-258.594c-9.088-9.089-9.088-23.824 0-32.913s23.824-9.088 32.913 0l218.93 218.937zM46.545 316.137c12.853 0 23.273-10.422 23.273-23.273v-206.876c0-21.262 8.446-41.649 23.479-56.683s35.423-23.482 56.683-23.482h724.042c21.257 0 41.649 8.448 56.683 23.482 15.030 15.034 23.478 35.421 23.478 56.683v206.876c0 12.851 10.422 23.273 23.273 23.273s23.273-10.422 23.273-23.273v-206.876c0-33.606-13.349-65.834-37.111-89.595-23.761-23.766-55.99-37.115-89.595-37.115h-724.042c-33.605 0-65.833 13.349-89.596 37.115-23.762 23.761-37.111 55.99-37.111 89.595v206.876c0 12.851 10.42 23.273 23.273 23.273z" />
<glyph unicode="&#xe91e;" glyph-name="plus" d="M503.796 917.333c23.564 0 42.667-19.103 42.667-42.667v-384h392.204c23.561 0 42.667-19.103 42.667-42.667s-19.106-42.667-42.667-42.667h-392.204v-384c0-23.561-19.103-42.667-42.667-42.667s-42.667 19.106-42.667 42.667v384h-375.796c-23.564 0-42.667 19.103-42.667 42.667s19.103 42.667 42.667 42.667h375.796v384c0 23.564 19.103 42.667 42.667 42.667z" />
<glyph unicode="&#xe91f;" glyph-name="add-member" d="M224.781 669.867c0 90.738 70.419 162.133 154.668 162.133s154.669-71.395 154.669-162.133c0-90.738-70.419-162.134-154.669-162.134s-154.668 71.396-154.668 162.134zM379.45 896c-121.938 0-218.668-102.438-218.668-226.133s96.73-226.134 218.668-226.134c121.939 0 218.669 102.438 218.669 226.134s-96.73 226.133-218.669 226.133zM215.732 359.82c-57.976 0-113.078-24.742-153.332-67.949-40.183-43.135-62.4-101.176-62.4-161.266v-98.605c0-17.677 14.327-32 32-32s32 14.323 32 32v98.605c0 44.518 16.497 86.803 45.228 117.638 28.659 30.763 67.023 47.577 106.505 47.577h321.531c39.482 0 77.846-16.814 106.506-47.577 28.73-30.835 45.229-73.12 45.229-117.638v-98.605c0-17.677 14.323-32 32-32 17.67 0 32 14.323 32 32v98.605c0 60.090-22.221 118.131-62.4 161.266-40.256 43.208-95.359 67.949-153.335 67.949h-321.531zM832 674.133c17.67 0 32-14.327 32-32v-134.399h128.006c17.67 0 32-14.327 32-32s-14.33-32-32-32h-128.006v-134.402c0-17.673-14.33-32-32-32s-32 14.327-32 32v134.402h-128c-17.67 0-32 14.327-32 32s14.33 32 32 32h128v134.399c0 17.673 14.33 32 32 32z" />
<glyph unicode="&#xe920;" glyph-name="whatsapp" d="M368.912 699.928c12.344-29.792 42.432-103.24 46.048-110.784 3.608-7.528 7.224-17.768 2.104-27.696-4.816-10.24-9.024-14.752-16.552-23.48-7.52-8.736-14.736-15.352-22.264-24.688-6.92-8.12-14.744-16.856-6.016-31.904 8.72-14.752 38.808-63.808 83.048-103.232 57.176-50.864 103.512-67.136 120.064-74.048 12.336-5.12 27.088-3.912 36.112 5.72 11.44 12.336 25.576 32.808 40.024 52.976 10.224 14.448 23.16 16.256 36.704 11.144 13.84-4.816 86.968-40.936 102.008-48.464 15.040-7.536 24.976-11.136 28.584-17.456 3.616-6.32 3.616-36.12-8.72-71.040-12.344-34.904-61.392-63.816-100.512-72.24-26.776-5.712-61.688-10.232-179.344 38.528-150.456 62.32-247.352 215.232-254.88 225.152-7.224 9.944-60.784 80.976-60.784 154.424 0 73.44 37.32 109.256 52.36 124.608 12.344 12.64 32.8 18.36 52.368 18.36 6.328 0 12.032-0.296 17.152-0.592 15.040-0.608 22.568-1.512 32.496-25.288zM511.848 960c-282.256 0-511.848-229.656-511.848-511.992 0-111.968 36.112-215.816 97.496-300.096l-63.8-190.232 196.8 62.896c80.944-53.576 177.536-84.576 281.656-84.576 282.256 0 511.848 229.672 511.848 511.992 0 282.336-229.592 511.992-511.848 511.992h-0.296v0.016z" />
<glyph unicode="&#xe921;" glyph-name="shipping-free" d="M806.682 834.984l-497.841-243.035v-156.017l-86.822 40.142v155.911l497.843 243.035-167.168 77.25c-22.359 10.307-59.030 10.307-81.389 0l-411.856-190.196c-32.806-15.19-59.553-58.046-59.449-95.369l1.045-445.709c0.104-37.647 27.478-80.614 60.807-95.478l410.707-182.277c21.627-9.651 57.151-9.651 78.778 0l410.813 182.277c33.326 14.756 60.698 57.723 60.805 95.37l1.044 445.708c0.102 37.323-26.644 80.18-59.448 95.37l-157.87 73.019zM930.908 478.135l-24.136-11.61-0.522-176.094c0-7.7-6.579-16.814-14.628-20.506l-36.045-16.056c-7.936-3.579-14.31-0.215-14.31 7.378l-0.108 173.814-23.296-11.284c-10.972-5.315-17.869 3.036-12.436 14.971l55.793 122.171c5.642 12.368 19.748 19.421 25.39 12.803l57.252-67.811c5.75-6.836-1.567-22.242-12.954-27.775zM695.306 195.389c0.108-7.378-5.955-16.056-13.373-19.42l-33.428-14.971c-7.316-3.256-13.373 0-13.373 7.265l-1.987 166.436-21.627-10.414c-10.138-4.884-16.717 3.149-11.704 14.541l50.673 116.199c5.12 11.718 18.181 18.336 23.511 11.826l54.016-65.751c5.432-6.508-1.152-21.156-11.807-26.363l-22.359-10.742 1.459-168.607zM970.716 243.779c0-3.901-3.343-8.463-7.521-10.199l-382.080-166.758c-3.553-1.521-6.482 0.108-6.584 3.686l-0.312 19.425c-0.108 3.579 2.821 7.7 6.374 9.329l382.807 169.364c4.076 1.843 7.419 0.108 7.419-3.686l-0.102-21.161z" />
<glyph unicode="&#xe922;" glyph-name="arrow-bold-down" horiz-adv-x="768" d="M396.799 921.6c35.346 0 64-28.654 64-64v-659.2l182.226 191.34c24.376 25.595 64.886 26.583 90.481 2.207 25.6-24.376 26.588-64.891 2.212-90.486l-292.574-307.2c-12.080-12.682-28.83-19.86-46.345-19.86s-34.265 7.178-46.345 19.86l-292.571 307.2c-24.377 25.595-23.389 66.109 2.207 90.486s66.106 23.388 90.483-2.207l182.226-191.34v659.2c0 35.346 28.654 64 64 64z" />
<glyph unicode="&#xe923;" glyph-name="hide" horiz-adv-x="1152" d="M161.941 929.941l121.885-121.885c89.389 56.865 189.148 87.944 292.173 87.944 236.077 0 454.995-163.187 571.315-425.852 6.246-14.14 6.246-30.153 0-44.297-50.291-113.57-119.77-208.54-201.517-279.765l112.141-112.147c18.746-18.746 18.746-49.133 0-67.878s-49.133-18.746-67.878 0l-121.888 121.882c-89.389-56.864-189.146-87.942-292.173-87.942-236.075 0-454.995 163.187-571.317 425.852-6.244 14.144-6.244 30.157 0 44.297 50.295 113.569 119.77 208.541 201.519 279.767l-112.143 112.143c-18.745 18.745-18.745 49.137 0 67.882s49.137 18.745 67.882 0zM274.235 681.883c-68.346-58.045-128.484-136.635-174.147-233.883 106.443-226.688 291.539-352 475.912-352 75.795 0 151.718 21.178 222.246 61.875l-124.762 124.762c-28.576-16.896-61.896-26.598-97.485-26.637-106.039 0-192 85.961-192 192 0 35.607 9.693 68.95 26.583 97.535l-136.348 136.348zM478.465 613.417c28.585 16.89 61.928 26.583 97.535 26.583 106.042 0 192-85.962 192-192-0.038-35.588-9.741-68.912-26.637-97.483l136.403-136.399c68.346 58.042 128.48 136.634 174.144 233.882-106.438 226.689-291.539 352-475.91 352-75.798 0-151.717-21.179-222.244-61.874l124.709-124.709z" />
<glyph unicode="&#xe924;" glyph-name="arrow-bold-right" horiz-adv-x="1463" d="M54.866 448.005c0 50.494 40.934 91.429 91.428 91.429h941.713l-273.335 260.323c-36.571 34.824-37.983 92.696-3.16 129.261 34.831 36.565 92.701 37.977 129.265 3.153l438.857-417.959c18.117-17.257 28.372-41.185 28.372-66.207s-10.255-48.951-28.372-66.207l-438.857-417.959c-36.564-34.823-94.435-33.412-129.265 3.152-34.823 36.564-33.412 94.435 3.16 129.265l273.335 260.321h-941.713c-50.494 0-91.428 40.934-91.428 91.429z" />
<glyph unicode="&#xe925;" glyph-name="thumb-up" d="M94.003 584h-62.668c-17.306 0-31.334-14.029-31.334-31.334v-564.224c0-17.306 14.029-31.334 31.334-31.334l62.668 0.614c17.306 0 31.334 14.029 31.334 31.334v564.224c0.102 17.306-13.926 30.72-31.334 30.72zM999.659 562.586c-4.301 7.885-12.186 14.438-23.347 19.456-2.867 1.229-5.837 2.048-8.806 2.56-26.624 3.379-152.371 30.72-372.224 30.72 28.467 88.576 31.744 103.219 31.744 188.109 0 94.003-57.856 155.75-94.106 156.57-17.203 0-31.13-13.824-31.334-30.925-1.434-123.699-61.338-279.757-222.72-346.214-16.999-5.325-28.365-20.173-28.365-37.069l0.307-494.694c0-26.419 28.877-31.334 28.877-31.334 8.909-2.662 16.486-5.53 158.72-39.834 2.458-0.512 95.642-22.835 189.747-22.835h186.982c35.226 0 51.917 11.776 62.259 31.334 1.331 2.458 125.44 254.362 126.157 559.104 0 5.12-1.331 10.445-3.891 15.053z" />
<glyph unicode="&#xe926;" glyph-name="clock" horiz-adv-x="1170" d="M585.188 949.714c-277.197 0-501.76-224.768-501.76-501.761 0-277.094 224.563-501.658 501.76-501.658s501.76 224.563 501.76 501.658c0.102 276.993-224.563 501.761-501.76 501.761zM696.907 407.505c0-40.653-32.051-73.728-72.192-75.264-4.096-0.717-8.294-0.922-12.493-0.922h-224.768c-42.394 0-76.595 34.099-76.595 76.39s34.202 76.595 76.595 76.595h159.13v222.414c0 41.574 33.69 75.162 75.059 75.162 41.677 0 75.264-33.69 75.264-75.162v-299.214z" />
<glyph unicode="&#xe927;" glyph-name="calendar" d="M744.249 935.906c0 13.307-10.788 24.094-24.094 24.094-13.312 0-24.094-10.787-24.094-24.094v-72.303h-380.167v72.303c0 13.307-10.788 24.094-24.094 24.094s-24.094-10.787-24.094-24.094v-72.303h-136.527c-69.997 0-131.179-51.61-131.179-120.468v-674.617c0-68.861 61.182-120.471 131.179-120.471h749.593c69.999 0 131.18 51.61 131.18 120.471v674.617c0 68.858-61.181 120.468-131.18 120.468h-136.523v72.303zM963.765 574.507h-915.576v168.628c0 37.593 34.705 72.28 82.991 72.28h136.527v-72.257c0-13.307 10.787-24.094 24.094-24.094s24.094 10.787 24.094 24.094v72.257h380.167v-72.257c0-13.307 10.782-24.094 24.094-24.094 13.306 0 24.094 10.787 24.094 24.094v72.257h136.523c48.285 0 82.992-34.686 82.992-72.28v-168.628zM48.188 526.319h915.576v-457.801c0-37.593-34.708-72.282-82.992-72.282h-749.593c-48.286 0-82.991 34.69-82.991 72.282v457.801z" />
<glyph unicode="&#xe928;" glyph-name="checkbox" d="M136.533 891.733c-37.702 0-68.267-30.564-68.267-68.267v-750.933c0-37.704 30.564-68.267 68.267-68.267h750.933c37.704 0 68.267 30.563 68.267 68.267v750.933c0 37.702-30.563 68.267-68.267 68.267h-750.933zM0 823.467c0 75.405 61.128 136.533 136.533 136.533h750.933c75.407 0 136.533-61.128 136.533-136.533v-750.933c0-75.407-61.126-136.533-136.533-136.533h-750.933c-75.405 0-136.533 61.126-136.533 136.533v750.933zM417.019 140.8l-212.219 232.131 48.478 43.335 156.781-171.489 355.312 510.423 53.828-36.639-402.181-577.761z" />
<glyph unicode="&#xe929;" glyph-name="deactivate" d="M950.857 448c0 98.501-32.453 189.422-87.245 262.657l-628.846-602.873c75.579-61.659 172.088-98.64 277.234-98.64 242.373 0 438.857 196.484 438.857 438.857zM182.516 158.106l633.005 606.863c-78.819 75.5-185.754 121.888-303.521 121.888-242.374 0-438.857-196.483-438.857-438.857 0-111.114 41.294-212.583 109.373-289.894zM1024 448c0-282.77-229.23-512-512-512s-512 229.23-512 512c0 282.77 229.23 512 512 512s512-229.23 512-512z" />
<glyph unicode="&#xe92a;" glyph-name="email-o" horiz-adv-x="1252" d="M102.504 809.487c8.776 29.328 36.141 50.958 68.167 50.958h910.224c32.023 0 59.386-21.629 68.164-50.958l-523.275-366.294-523.28 366.294zM14.227 790.040c-0.006-0.41-0.007-0.82-0.002-1.229v-682.144c0-86.141 70.302-156.444 156.444-156.444h910.224c86.141 0 156.444 70.303 156.444 156.444v682.145zM1152.006 707.385v-600.719c0-39.014-32.097-71.111-71.111-71.111h-910.224c-39.013 0-71.111 32.097-71.111 71.111v600.719l501.757-351.227c14.689-10.286 34.241-10.286 48.936 0l501.754 351.227zM1237.333 790.039c-0.381 85.82-70.537 155.738-156.439 155.738h-910.224c-85.906 0-156.059-69.918-156.443-155.738z" />
<glyph unicode="&#xe92b;" glyph-name="delete" d="M376.452 846.779c-11.23-10.885-17.347-25.431-17.347-40.379v-57.6h305.777v57.6c0 14.948-6.117 29.494-17.347 40.379-11.265 10.917-26.749 17.221-43.097 17.221h-184.889c-16.348 0-31.833-6.304-43.097-17.221zM728.883 748.8l199.117 0.001c17.67 0 32-14.327 32-32s-14.33-32-32-32l-60.448-0.001v-595.201c0-32.576-13.363-63.616-36.806-86.336-23.411-22.688-54.95-35.264-87.642-35.264h-462.222c-32.687 0-64.23 12.576-87.639 35.264-23.443 22.72-36.805 53.76-36.805 86.336v595.197l-60.438-0.001c-17.673 0-32 14.327-32 32s14.327 32 32 32l199.104 0.003v57.6c0 32.579 13.362 63.613 36.805 86.335 23.409 22.689 54.952 35.265 87.639 35.265h184.889c32.687 0 64.23-12.576 87.639-35.265 23.443-22.722 36.806-53.756 36.806-86.335v-57.6zM803.552 684.8l-583.114-0.003v-595.197c0-14.95 6.117-29.491 17.347-40.378 11.265-10.918 26.749-17.222 43.097-17.222h462.222c16.346 0 31.834 6.304 43.098 17.222 11.232 10.886 17.35 25.427 17.35 40.378v595.2zM419.532 524.789c-17.673 0-32-14.327-32-32v-268.802c0-17.67 14.327-32 32-32s32 14.33 32 32v268.802c0 17.673-14.327 32-32 32zM636.438 492.781v-268.801c0-17.67-14.327-32-32-32s-32 14.33-32 32v268.801c0 17.673 14.327 32 32 32s32-14.327 32-32z" />
<glyph unicode="&#xe92c;" glyph-name="phone" d="M1018.271 196.091v-153.6c0.056-14.259-2.862-28.375-8.576-41.436-5.709-13.066-14.090-24.796-24.596-34.437-10.506-9.636-22.912-16.978-36.419-21.545-13.512-4.567-27.822-6.267-42.025-4.982-157.548 17.121-308.89 70.958-441.855 157.184-123.708 78.607-228.591 183.491-307.2 307.2-86.53 133.571-140.378 285.645-157.184 443.904-1.279 14.159 0.403 28.428 4.941 41.901s11.831 25.853 21.415 36.352c9.584 10.499 21.25 18.888 34.254 24.632s27.062 8.717 41.278 8.731h153.6c24.847 0.245 48.936-8.554 67.777-24.757s31.145-38.703 34.623-63.307c6.483-49.155 18.506-97.419 35.84-143.872 6.888-18.326 8.379-38.242 4.296-57.389s-13.57-36.722-27.336-50.643l-65.024-65.024c72.886-128.179 179.018-234.312 307.199-307.2l65.024 65.024c13.921 13.768 31.498 23.255 50.642 27.336 19.149 4.086 39.066 2.591 57.39-4.296 46.454-17.331 94.72-29.358 143.872-35.84 24.873-3.507 47.585-16.036 63.821-35.2 16.241-19.164 24.868-43.628 24.243-68.736z" />
<glyph unicode="&#xe92d;" glyph-name="phone-o" d="M118.63 944.64c-26.416-5.44-49.202-18.4-66.677-36.518l-0.037-0.038c-14.44-13.913-25.592-31.137-32.243-50.455l-0.269-0.898c-4.301-12.493-4.659-15.872-4.762-40.090-0.256-62.771 25.293-174.592 59.802-261.683 38.349-96.768 95.795-191.795 166.246-275.046 108.493-128.205 265.574-233.318 430.029-287.693 69.888-23.142 165.581-42.496 209.92-42.547 57.344 0 104.346 34.662 124.826 92.16 3.891 10.957 3.942 11.93 4.506 103.219 0.614 103.936 0.41 106.445-11.725 131.738-15.609 32.7-43.537 57.406-77.622 68.403l-0.919 0.256c-9.809 2.755-22.44 5.467-35.295 7.51l-2.081 0.273c-35.425 5.818-66.569 13.792-96.596 24.162l4.077-1.225c-36.506 11.878-39.014 12.39-58.675 12.39-27.904 0-53.146-7.68-75.776-23.040-4.25-2.867-18.432-15.718-31.59-28.621l-23.859-23.45-17.92 12.083c-46.694 31.437-80.23 60.058-123.034 104.96-27.034 28.314-59.955 70.144-76.646 97.382l-5.53 9.062 22.938 23.398c31.078 31.642 40.909 46.899 48.077 74.65 7.014 27.034 5.171 49.766-6.81 85.094-9.291 26.382-17.789 58.539-23.887 91.537l-0.638 4.156c-5.222 31.437-7.782 41.933-13.517 54.477-13.056 28.826-34.918 50.586-65.229 64.973-22.63 10.752-26.47 11.11-124.365 10.906-48.384-0.102-90.982-0.768-94.72-1.485zM291.84 869.427c13.261-2.15 22.477-7.168 32.051-17.562 9.677-10.547 11.469-15.616 17.306-49.408 6.093-35.226 14.131-66.97 25.702-101.376 9.728-29.082 10.547-37.683 4.915-52.89-3.226-8.806-7.424-13.722-38.093-44.902-37.12-37.683-41.523-43.008-43.725-52.582-3.072-13.67 4.454-29.338 37.888-78.797 60.789-88.862 136.831-162.536 225.026-218.86l3.121-1.864c35.942-22.784 46.643-26.982 59.904-23.398 5.99 1.638 13.619 8.141 45.568 38.963 43.93 42.342 48.538 45.414 68.096 45.363 9.523 0 16.128-1.485 32.41-7.066 38.656-13.312 61.901-19.2 108.851-27.494 31.949-5.683 39.066-8.653 50.125-21.299 13.21-15.053 13.21-14.899 13.875-98.304 0.768-92.826-0.205-99.686-16.691-116.122-16.077-16.077-27.802-18.227-68.659-12.646-134.042 18.483-255.795 65.229-372.48 142.95-129.024 85.914-231.526 203.52-302.080 346.675-38.678 75.846-67.136 163.938-80.606 256.884l-0.546 4.594c-5.12 35.277-4.762 46.387 1.843 59.75 7.629 15.462 22.426 26.675 39.014 29.491 12.134 2.048 144.384 1.997 157.184-0.102z" />
<glyph unicode="&#xe92e;" glyph-name="download" d="M544 864c0 17.673-14.327 32-32 32s-32-14.327-32-32v-506.497l-196.049 168.042c-13.418 11.501-33.62 9.948-45.121-3.471s-9.948-33.62 3.471-45.122l248.889-213.331c11.984-10.272 29.667-10.272 41.651 0l248.888 213.331c13.421 11.501 14.976 31.703 3.469 45.122-11.501 13.418-31.699 14.972-45.12 3.471l-196.077-168.067v506.521zM64 320.093c17.673 0 32-14.326 32-32v-170.666c0-12.416 5.713-25.523 17.985-36.045 12.424-10.65 30.197-17.286 49.571-17.286h696.886c19.379 0 37.152 6.637 49.574 17.286 12.269 10.522 17.984 23.629 17.984 36.045v170.666c0 17.674 14.33 32 32 32s32-14.326 32-32v-170.666c0-32.851-15.264-63.149-40.333-84.634-24.915-21.357-57.792-32.698-91.226-32.698h-696.886c-33.434 0-66.306 11.341-91.222 32.698-25.069 21.485-40.334 51.782-40.334 84.634v170.666c0 17.674 14.327 32 32 32z" />
<glyph unicode="&#xe92f;" glyph-name="duplicate" d="M139.012 878.648c10.867 10.737 25.554 16.718 40.83 16.627l403.192-2.413c15.276-0.092 29.891-6.248 40.628-17.114s16.716-25.553 16.626-40.829l-0.269-44.799c-0.106-17.672 14.138-32.085 31.808-32.191s32.083 14.135 32.192 31.808l0.269 44.799c0.192 32.25-12.435 63.255-35.098 86.196-22.669 22.94-53.523 35.937-85.772 36.13l-403.193 2.413c-32.25 0.193-63.255-12.433-86.196-35.101s-35.937-53.52-36.131-85.77l-2.417-403.192c-0.193-32.25 12.433-63.256 35.1-86.196s53.519-35.94 85.77-36.132l44.799-0.269c17.673-0.102 32.086 14.138 32.191 31.811s-14.135 32.085-31.807 32.191l-44.799 0.268c-15.276 0.092-29.891 6.248-40.627 17.114s-16.718 25.553-16.627 40.829l2.417 403.193c0.092 15.276 6.248 29.891 17.114 40.628zM433.617 522.559c0.191 31.811 26.133 57.444 57.944 57.254l403.191-2.415c31.814-0.19 57.446-26.132 57.254-57.944l-2.413-403.192c-0.192-31.814-26.131-57.446-57.946-57.254l-403.192 2.413c-31.811 0.192-57.444 26.138-57.254 57.946l2.414 403.193zM491.944 643.812c-67.157 0.402-121.924-53.713-122.326-120.87l-2.415-403.192c-0.402-67.155 53.713-121.926 120.87-122.33l403.191-2.413c67.162-0.403 121.926 53.715 122.33 120.87l2.413 403.193c0.403 67.156-53.715 121.924-120.87 122.326l-403.192 2.415z" />
<glyph unicode="&#xe930;" glyph-name="edit" d="M634.367 950.381c-13.238 12.83-34.273 12.83-47.511 0l-542.344-525.64c-6.634-6.429-10.378-15.273-10.378-24.51l-0.001-191.144c0-18.848 15.282-34.133 34.133-34.133l197.215 0.007c8.868 0 17.388 3.447 23.755 9.619l542.347 525.641c6.629 6.429 10.377 15.273 10.377 24.51s-3.748 18.081-10.377 24.51l-197.217 191.14zM102.4 243.22l0.001 142.559 508.21 492.558 148.167-143.606-507.122-491.504-149.255-0.007zM68.27 38.42c-18.851 0-34.133-15.285-34.133-34.133 0-18.855 15.282-34.133 34.133-34.133h887.463c18.855 0 34.14 15.285 34.14 34.133 0 18.855-15.285 34.133-34.133 34.133h-887.47z" />
<glyph unicode="&#xe931;" glyph-name="filters" d="M819.205 762.182c0-42.415-34.383-76.8-76.8-76.8s-76.8 34.385-76.8 76.8c0 42.415 34.383 76.8 76.8 76.8s76.8-34.385 76.8-76.8zM742.405 634.182c61.924 0 113.58 43.975 125.44 102.401h130.555c14.141 0 25.6 11.461 25.6 25.6s-11.459 25.6-25.6 25.6h-130.555c-11.86 58.425-63.516 102.399-125.44 102.399s-113.58-43.974-125.44-102.399h-591.365c-14.139 0-25.6-11.462-25.6-25.6s11.461-25.6 25.6-25.6h591.365c11.86-58.426 63.516-102.401 125.44-102.401zM25.6 173.386c-14.139 0-25.6-11.464-25.6-25.6 0-14.141 11.461-25.6 25.6-25.6h540.151c11.86-58.429 63.516-102.405 125.44-102.405s113.58 43.976 125.44 102.405h181.769c14.141 0 25.6 11.459 25.6 25.6 0 14.136-11.459 25.6-25.6 25.6h-181.769c-11.86 58.424-63.516 102.395-125.44 102.395s-113.58-43.971-125.44-102.395h-540.151zM281.595 378.177c42.415 0 76.8 34.388 76.8 76.802s-34.385 76.8-76.8 76.8c-42.415 0-76.8-34.385-76.8-76.8s34.385-76.802 76.8-76.802zM407.035 429.38c-11.859-58.427-63.514-102.403-125.44-102.403s-113.581 43.976-125.44 102.403h-130.555c-14.138 0-25.6 11.462-25.6 25.6s11.461 25.6 25.6 25.6h130.556c11.86 58.425 63.515 102.399 125.44 102.399s113.579-43.974 125.439-102.399h591.366c14.141 0 25.6-11.461 25.6-25.6s-11.459-25.6-25.6-25.6h-591.365zM767.991 147.782c0-42.412-34.383-76.8-76.8-76.8s-76.8 34.388-76.8 76.8c0 42.417 34.383 76.8 76.8 76.8s76.8-34.383 76.8-76.8z" />
<glyph unicode="&#xe932;" glyph-name="flip-left" d="M549.845 925.867c-187.017 0-352.045-107.915-428.906-271.507l-53.486 111.009-67.453-32.492 111.034-230.472 230.482 111.034-32.504 67.454-120.060-57.828c64.855 137.377 203.631 227.913 360.893 227.913 220.155 0 399.294-179.112 399.294-399.284 0-220.174-179.139-399.299-399.294-399.299-129.647 0-251.694 63.345-326.53 169.424l-61.176-43.172c88.855-125.945 233.767-201.127 387.706-201.127 261.443-0.014 474.155 212.712 474.155 474.173s-212.712 474.173-474.155 474.173z" />
<glyph unicode="&#xe933;" glyph-name="flip-right" d="M474.155 925.871c187.017 0 352.042-107.915 428.904-271.508l53.487 111.009 67.454-32.492-111.036-230.472-230.48 111.034 32.507 67.454 120.061-57.828c-64.86 137.377-203.634 227.913-360.897 227.913-220.157 0-399.292-179.112-399.292-399.284s179.135-399.296 399.292-399.296c129.647 0 251.69 63.338 326.531 169.424l61.174-43.179c-88.856-125.938-233.766-201.12-387.705-201.12-261.446-0.014-474.155 212.705-474.155 474.171 0 261.462 212.709 474.174 474.155 474.174z" />
<glyph unicode="&#xe934;" glyph-name="guest-list" d="M229.515 645.614c0 84.335 67.188 152.702 150.069 152.702s150.069-68.367 150.069-152.702c0-84.334-67.188-152.702-150.069-152.702s-150.069 68.367-150.069 152.702zM379.584 852.211c-112.133 0-203.034-92.496-203.034-206.596s90.902-206.596 203.034-206.596c112.133 0 203.034 92.496 203.034 206.596s-90.901 206.596-203.034 206.596zM203.034 367.158c-53.848 0-105.491-21.766-143.567-60.508-38.076-38.745-59.467-91.298-59.467-146.087v-89.826c0-14.88 11.857-26.947 26.483-26.947s26.483 12.067 26.483 26.947v89.826c0 40.497 15.811 79.338 43.954 107.978 28.144 28.634 66.314 44.722 106.115 44.722h353.105c39.801 0 77.97-16.088 106.113-44.722 28.144-28.64 43.951-67.482 43.951-107.978v-89.826c0-14.88 11.857-26.947 26.484-26.947s26.484 12.067 26.484 26.947v89.826c0 54.789-21.391 107.342-59.467 146.087-38.077 38.742-89.719 60.508-143.565 60.508h-353.105zM839.459 341.108c3.659 14.41 18.103 23.076 32.267 19.355 43.558-11.443 82.146-37.283 109.708-73.463 27.562-36.174 42.534-80.643 42.566-126.421v-89.843c0-14.88-11.857-26.947-26.484-26.947s-26.484 12.067-26.484 26.947v89.805c-0.022 33.835-11.092 66.7-31.458 93.443-20.372 26.737-48.899 45.837-81.090 54.294-14.164 3.724-22.679 18.421-19.025 32.831zM695.124 845.526c-14.169 3.691-28.597-5.004-32.224-19.421s4.915-29.098 19.084-32.789c32.283-8.41 60.896-27.513 81.327-54.297s31.518-59.726 31.518-93.632c0-33.906-11.086-66.848-31.518-93.632s-49.044-45.887-81.327-54.297c-14.169-3.691-22.711-18.372-19.084-32.789s18.055-23.113 32.224-19.422c43.671 11.379 82.383 37.224 110.026 73.461s42.647 80.806 42.647 126.679c0 45.873-15.004 90.442-42.647 126.679s-66.355 62.083-110.026 73.461z" />
<glyph unicode="&#xe935;" glyph-name="show" horiz-adv-x="1317" d="M658.286 850.286c210.71 0 422.254-143.213 543.898-402.286-121.644-259.072-333.188-402.286-543.898-402.286-210.712 0-422.25 143.214-543.899 402.286 121.649 259.073 333.186 402.286 543.899 402.286zM658.286-64c269.802 0 519.995 186.5 652.932 486.687 7.139 16.165 7.139 34.465 0 50.625-132.937 300.188-383.13 486.687-652.932 486.687-269.8 0-519.994-186.5-652.934-486.687-7.136-16.16-7.136-34.461 0-50.625 132.94-300.188 383.134-486.687 652.934-486.687zM438.857 448c0-121.187 98.241-219.429 219.429-219.429 121.139 0.121 219.312 98.292 219.429 219.429 0 121.187-98.238 219.429-219.429 219.429-121.187 0-219.429-98.242-219.429-219.429z" />
<glyph unicode="&#xe936;" glyph-name="image" d="M60.235 870.506h903.532v-439.817l-122.741 136.213c-5.712 6.338-13.839 9.956-22.374 9.956-8.528 0-16.662-3.618-22.374-9.956l-300.091-333.039-160.979 203.559c-5.405 6.834-13.504 10.993-22.206 11.403s-17.157-2.97-23.18-9.265l-229.586-239.99v670.936zM60.235 113.167c1.485 1.068 2.894 2.289 4.204 3.657l244.986 256.093 273.389-345.708h-522.579v85.957zM644.773-33.024c0.184 0 0.369 0 0.554 0h378.674v385.127c0 0.12 0 0.24 0 0.36v578.278h-1024v-963.765h644.773zM963.767 340.706v-313.497h-304.158l-125.526 158.735 0.292 0.315 284.277 315.491 145.115-161.044zM469.323 564.307c-37.426 0-67.765 30.34-67.765 67.765s30.339 67.765 67.765 67.765c37.426 0 67.765-30.339 67.765-67.765s-30.339-67.765-67.765-67.765zM469.323 504.072c70.693 0 128 57.307 128 128s-57.307 128-128 128c-70.693 0-128-57.307-128-128s57.307-128 128-128z" />
<glyph unicode="&#xe937;" glyph-name="info-o" d="M512 857.6c-226.216 0-409.6-183.384-409.6-409.6s183.384-409.6 409.6-409.6c226.215 0 409.6 183.385 409.6 409.6s-183.385 409.6-409.6 409.6zM34.133 448c0 263.918 213.948 477.867 477.867 477.867s477.867-213.948 477.867-477.867c0-263.919-213.948-477.867-477.867-477.867s-477.867 213.948-477.867 477.867zM512 438.516c18.851 0 34.133-15.281 34.133-34.133v-177.198c0-18.848-15.282-34.133-34.133-34.133s-34.133 15.285-34.133 34.133v177.198c0 18.852 15.282 34.133 34.133 34.133zM546.133 625.883c0 18.852-15.282 34.133-34.133 34.133s-34.133-15.281-34.133-34.133v-18.958c0-18.851 15.282-34.133 34.133-34.133s34.133 15.282 34.133 34.133v18.958z" />
<glyph unicode="&#xe938;" glyph-name="preview" d="M674.116 1.402l-508.904 0.162c-31.23 0.010-56.537 25.641-56.527 57.25l0.164 515.077c0.010 31.607 25.334 57.222 56.563 57.212s56.536-25.641 56.526-57.248l-0.119-376.909 695.426 703.412 79.94-80.962-695.425-703.412 372.392-0.118c31.229-0.010 56.537-25.641 56.527-57.248s-25.335-57.223-56.563-57.213z" />
<glyph unicode="&#xe939;" glyph-name="qty" d="M581.818 727.273c0-38.56-31.26-69.818-69.818-69.818s-69.818 31.259-69.818 69.818c0 38.56 31.26 69.818 69.818 69.818s69.818-31.259 69.818-69.818zM628.364 727.273c0-64.266-52.098-116.364-116.364-116.364s-116.364 52.098-116.364 116.364c0 64.266 52.098 116.364 116.364 116.364s116.364-52.098 116.364-116.364zM395.636 448c0-38.56-31.259-69.818-69.818-69.818s-69.818 31.259-69.818 69.818c0 38.56 31.259 69.818 69.818 69.818s69.818-31.259 69.818-69.818zM442.182 448c0-64.265-52.098-116.364-116.364-116.364s-116.364 52.098-116.364 116.364c0 64.266 52.098 116.364 116.364 116.364s116.364-52.098 116.364-116.364zM698.182 378.182c38.558 0 69.818 31.259 69.818 69.818s-31.26 69.818-69.818 69.818c-38.558 0-69.818-31.259-69.818-69.818s31.26-69.818 69.818-69.818zM698.182 331.636c64.265 0 116.364 52.098 116.364 116.364s-52.098 116.364-116.364 116.364c-64.265 0-116.364-52.098-116.364-116.364s52.098-116.364 116.364-116.364zM209.455 168.727c0-38.558-31.259-69.818-69.818-69.818s-69.818 31.26-69.818 69.818c0 38.558 31.259 69.818 69.818 69.818s69.818-31.26 69.818-69.818zM256 168.727c0-64.265-52.098-116.364-116.364-116.364s-116.364 52.098-116.364 116.364c0 64.265 52.098 116.364 116.364 116.364s116.364-52.098 116.364-116.364zM512 98.909c38.558 0 69.818 31.26 69.818 69.818s-31.26 69.818-69.818 69.818c-38.558 0-69.818-31.26-69.818-69.818s31.26-69.818 69.818-69.818zM512 52.364c64.265 0 116.364 52.098 116.364 116.364s-52.098 116.364-116.364 116.364c-64.266 0-116.364-52.098-116.364-116.364s52.098-116.364 116.364-116.364zM954.182 168.727c0-38.558-31.26-69.818-69.818-69.818s-69.818 31.26-69.818 69.818c0 38.558 31.26 69.818 69.818 69.818s69.818-31.26 69.818-69.818zM1000.727 168.727c0-64.265-52.098-116.364-116.364-116.364s-116.364 52.098-116.364 116.364c0 64.265 52.098 116.364 116.364 116.364s116.364-52.098 116.364-116.364z" />
<glyph unicode="&#xe93a;" glyph-name="radio" d="M955.733 448c0 245.067-198.663 443.733-443.733 443.733-245.067 0-443.733-198.666-443.733-443.733 0-245.071 198.666-443.733 443.733-443.733 245.071 0 443.733 198.663 443.733 443.733zM1024 448c0-282.767-229.233-512-512-512-282.77 0-512 229.233-512 512 0 282.77 229.23 512 512 512 282.767 0 512-229.23 512-512zM512 277.333c-94.256 0-170.667 76.41-170.667 170.667s76.41 170.667 170.667 170.667c94.256 0 170.667-76.41 170.667-170.667s-76.41-170.667-170.667-170.667z" />
<glyph unicode="&#xe93b;" glyph-name="remove-image" d="M52.706 849.693v-587.069l200.888 209.992c5.27 5.508 12.667 8.465 20.282 8.107s14.701-3.997 19.43-9.978l149.428-168.602 254.008 281.896c4.998 5.546 12.115 8.712 19.578 8.712 7.469 0 19.674-8.712 19.674-8.712l107.302-69.773v335.426h-790.59zM52.706 187.021v-75.213h439.999c18.314 0 26.050-16.058 26.050-26.349s-8.095-26.355-26.050-26.355h-492.705v843.294h896v-422.398c0 0 0-0.159-0.006-0.455 0-26.669-0.013-30.808-1.178-34.589-0.211-0.691-0.467-1.37-0.762-2.173-10.816-9.743-37.216 1.937-37.216 1.937l-140.518 82.311-238.406-264.58 34.076-38.451c9.028-11.418 7.092-27.987-4.324-37.018-11.416-9.024-27.989-7.091-37.017 4.326l-199.901 222.993-214.363-224.081c-1.147-1.197-2.379-2.266-3.679-3.2zM410.658 581.769c-32.748 0-59.294 26.547-59.294 59.294s26.547 59.294 59.294 59.294c32.748 0 59.294-26.547 59.294-59.294s-26.547-59.294-59.294-59.294zM410.658 529.063c61.856 0 112 50.144 112 112s-50.144 112-112 112c-61.856 0-112-50.144-112-112s50.144-112 112-112zM800 32c-88.365 0-160 71.635-160 160s71.635 160 160 160c88.365 0 160-71.635 160-160s-71.635-160-160-160zM800-32c123.712 0 224 100.288 224 224s-100.288 224-224 224c-123.712 0-224-100.288-224-224s100.288-224 224-224zM672 192c0 17.67 14.33 32 32 32h192c17.67 0 32-14.33 32-32s-14.33-32-32-32h-192c-17.67 0-32 14.33-32 32z" />
<glyph unicode="&#xe93c;" glyph-name="rename" d="M629.928 793.143h-228.571v-685.718h114.286v-57.139h-285.714v57.139h114.286v685.718h-228.571v-114.286h-57.142v171.429h628.571v-171.429h-57.143v114.286zM458.5 507.429v114.286h514.286v-114.286h-57.147v57.143h-171.425v-457.139h114.286v-57.147h-285.714v57.147h114.286v457.139h-171.429v-57.143h-57.143z" />
<glyph unicode="&#xe93d;" glyph-name="lock-o" d="M346.648 848.403c-38.427-38.699-60.047-91.223-60.047-146.029v-159.998h409.6v159.998c0 54.806-21.621 107.33-60.048 146.029-38.422 38.692-90.494 60.397-144.752 60.397-54.259 0-106.331-21.704-144.753-60.397zM259.92 491.177h-90.96c-36.591 0-66.56-29.92-66.56-67.209v-324.835c0-37.289 29.969-67.21 66.56-67.21h645.118c36.591 0 66.56 29.921 66.56 67.21v324.835c0 37.289-29.969 67.209-66.56 67.209h-91.198c-0.357-0.014-0.718-0.022-1.079-0.022s-0.722 0.007-1.080 0.022h-458.64c-0.357-0.014-0.718-0.022-1.079-0.022s-0.722 0.007-1.080 0.022zM235.4 542.377v159.998c0 68.269 26.928 133.777 74.917 182.105 47.995 48.334 113.129 75.52 181.083 75.52s133.087-27.187 181.082-75.52c47.99-48.327 74.918-113.836 74.918-182.105v-159.998h66.678c65.206 0 117.76-53.183 117.76-118.409v-324.835c0-65.226-52.554-118.41-117.76-118.41h-645.118c-65.207 0-117.76 53.185-117.76 118.41v324.835c0 65.226 52.553 118.409 117.76 118.409h66.44z" />
<glyph unicode="&#xe93e;" glyph-name="reply" d="M0 564.547c0 9.14 4.261 17.761 11.523 23.315l268.889 205.65c12.872 9.845 31.281 7.397 41.117-5.469s7.375-31.276-5.498-41.122l-210.044-151.53c0 0 470.012 0 662.012 0s199.232-162.794 199.232-234.383c0-71.588 0-200.851 0-200.851s4.518-32.004-27.482-32.004c-32 0-32 32.001-32 32.001s0 127.293 0 200.84c0 97.020-23.539 173.399-139.75 173.399s-662.012 0-662.012 0l210.044-151.782c12.872-9.827 15.334-28.234 5.498-41.114s-28.245-15.354-41.117-5.527l-268.889 205.277c-7.263 5.544-11.523 14.159-11.523 23.299z" />
<glyph unicode="&#xe93f;" glyph-name="sorting" horiz-adv-x="1536" d="M85.333-64c-24.178 0-44.444 8.175-60.8 24.533s-24.533 36.625-24.533 60.8c0 24.175 8.178 44.442 24.533 60.8s36.622 24.533 60.8 24.533h341.333c24.177 0 44.444-8.175 60.8-24.533s24.533-36.625 24.533-60.8c0-24.175-8.177-44.442-24.533-60.8s-36.623-24.533-60.8-24.533h-341.333zM85.333 362.667c-24.178 0-44.444 8.177-60.8 24.533s-24.533 36.623-24.533 60.8c0 24.177 8.178 44.444 24.533 60.8s36.622 24.533 60.8 24.533h853.333c24.175 0 44.442-8.177 60.8-24.533s24.533-36.623 24.533-60.8c0-24.177-8.175-44.444-24.533-60.8s-36.625-24.533-60.8-24.533h-853.333zM85.333 789.333c-24.178 0-44.444 8.177-60.8 24.533s-24.533 36.623-24.533 60.8c0 24.178 8.178 44.444 24.533 60.8s36.622 24.533 60.8 24.533h1365.333c24.175 0 44.442-8.178 60.8-24.533s24.533-36.622 24.533-60.8c0-24.177-8.175-44.444-24.533-60.8s-36.625-24.533-60.8-24.533h-1365.333z" />
<glyph unicode="&#xe940;" glyph-name="tablet" d="M511.069 913.455h-324.887v-936.495h651.636v936.495h-326.749zM139.636 919.040c0 22.622 18.338 40.96 40.96 40.96h655.36c22.621 0 48.407-18.338 48.407-40.96v-942.080c0-22.621-25.786-40.96-48.407-40.96h-655.36c-22.622 0-40.96 18.339-40.96 40.96v942.080zM506.184 22.109c-21.465 0-38.865 17.403-38.865 38.865 0 21.467 17.401 38.865 38.865 38.865s38.865-17.399 38.865-38.865c0-21.462-17.401-38.865-38.865-38.865z" />
<glyph unicode="&#xe941;" glyph-name="warning" d="M564.762 140.472c-14.541-14.541-32.154-21.811-52.634-21.811-20.478 0-38.501 7.27-53.144 21.811-15.155 14.643-22.426 32.154-22.426 53.146 0 20.48 7.27 38.605 22.426 53.146 14.643 15.155 32.666 22.426 53.144 22.426 20.48 0 37.99-7.27 52.634-22.426 15.155-14.541 22.426-32.666 22.426-53.146 0-20.992-7.27-38.502-22.426-53.146zM458.062 641.411c14.131 15.053 32.154 22.938 54.066 22.938 21.914 0 39.936-7.27 54.067-22.938 13.619-15.053 20.89-34.099 20.89-57.037 0-19.456-29.286-164.145-39.424-269.412h-70.654c-8.294 105.267-40.448 250.058-40.448 269.412 0.102 22.426 7.373 41.472 21.504 57.037zM993.101 149.279l-393.728 686.999c-48.23 83.763-126.667 83.763-174.898 0l-393.728-686.999c-48.128-83.763-8.806-152.474 87.654-152.474h787.454c95.949 0 135.475 68.71 87.245 152.474z" />
<glyph unicode="&#xe942;" glyph-name="number-list" horiz-adv-x="1229" d="M81.164 841.457v-137.501c0-14.913 12.697-26.158 29.539-26.158 16.559 0 29.527 11.49 29.527 26.158v205.622c0 14.495-12.418 25.854-28.269 25.854-13.943 0-20.918-8.953-23.209-11.896l-0.287-0.381-24.957-33.793c-4.846-5.044-9.156-13.112-9.156-20.85-0.004-14.752 11.982-26.784 26.812-27.055zM56.415 317.932h114.92c15.042 0 27.282 12.416 27.282 27.674 0 15.094-12.236 27.377-27.282 27.377h-83.445v0.445c0 8.218 20.119 21.519 36.286 32.205l0.007 0.005c32.158 21.253 72.175 47.703 72.175 93.573 0 43.533-36.017 76.357-83.781 76.357-45.736 0-80.221-29.445-80.221-68.49 0-22.659 15.746-30.701 29.228-30.701 19.298 0 30.831 13.459 30.831 26.465 0 8.086 2.22 17.369 19.516 17.369 23.367 0 24.038-19.393 24.038-21.604 0-17.431-24.152-33.727-47.51-49.485-28.873-19.475-61.599-41.558-61.599-75.698v-29.327c-0.004-15.647 15.281-26.163 29.553-26.163zM114.341 203.423c49.504 0 77.898-25.907 77.898-71.086 0-19.395-4.967-36.014-14.131-48.471 13.379-12.488 20.509-29.855 20.509-50.796v-5.709c0-51.077-32.228-81.572-86.205-81.572-55.566 0-85.55 34.924-85.55 67.779 0 18.038 10.979 28.805 29.369 28.805 20.953 0 30.331-13.414 30.331-26.706 0-3.512 1.843-14.976 25.543-14.976 17.178 0 26.486 4.25 26.486 26.67v5.709c0 13.327-4.325 21.586-25.85 21.586-15.838 0-27.783 11.484-27.783 26.706 0 15.391 11.801 26.998 27.455 26.998 16.297 0 20.435 1.971 20.435 20.086 0 18.534-5.544 20.383-19.161 20.383-18.947 0-21.378-7.373-21.378-13.793 0-16.686-11.93-27.899-29.692-27.899-9.121 0-30.335 2.898-30.335 29.706 0 23.030 17.151 66.58 82.059 66.58zM290.487 800.471c0 28.277 22.923 51.2 51.2 51.2h809.785c28.278 0 51.2-22.923 51.2-51.2s-22.922-51.2-51.2-51.2h-809.785c-28.277 0-51.2 22.923-51.2 51.2zM290.487 440.607c0 28.276 22.923 51.199 51.2 51.199h809.785c28.278 0 51.2-22.923 51.2-51.199 0-28.278-22.922-51.2-51.2-51.2h-809.785c-28.277 0-51.2 22.922-51.2 51.2zM341.687 131.927c-28.277 0-51.2-22.922-51.2-51.2s22.923-51.2 51.2-51.2h809.785c28.278 0 51.2 22.922 51.2 51.2s-22.922 51.2-51.2 51.2h-809.785z" />
<glyph unicode="&#xe943;" glyph-name="ok" d="M973.312 832.655c23.927-19.13 27.819-54.034 8.687-77.96l-545.824-682.667c-10.362-12.96-25.983-20.601-42.575-20.824s-32.414 6.994-43.121 19.672l-307.511 364.088c-19.766 23.404-16.818 58.399 6.585 78.165s58.399 16.817 78.165-6.585l263.961-312.527 503.673 629.953c19.132 23.926 54.033 27.814 77.961 8.684z" />
<glyph unicode="&#xe944;" glyph-name="text-center" horiz-adv-x="1325" d="M37.059 843.235c0 33.267 26.968 60.235 60.235 60.235h1130.368c33.268 0 60.235-26.968 60.235-60.235s-26.967-60.235-60.235-60.235h-1130.368c-33.267 0-60.235 26.969-60.235 60.235zM206.588 447.588c0 33.267 26.968 60.235 60.235 60.235h791.257c33.268 0 60.235-26.968 60.235-60.235s-26.967-60.235-60.235-60.235h-791.257c-33.267 0-60.235 26.969-60.235 60.235zM97.294 112.236c-33.267 0-60.235-26.967-60.235-60.235s26.968-60.235 60.235-60.235h1130.368c33.268 0 60.235 26.967 60.235 60.235s-26.967 60.235-60.235 60.235h-1130.368z" />
<glyph unicode="&#xe945;" glyph-name="text-italic" horiz-adv-x="512" d="M159.473 1.193c0.121 0 0.242 0 0.363 0 0.118 0 0.236 0 0.354 0h66.982c15.914 0 28.83 15.012 28.83 33.51s-12.916 33.51-28.83 33.51h-29.678l176.624 759.561h45.25c15.914 0 28.83 15.012 28.83 33.509s-12.916 33.509-28.83 33.509h-65.933c-1.101 0.076-2.196 0.074-3.281 0h-65.321c-15.914 0-28.83-15.012-28.83-33.509s12.916-33.509 28.83-33.509h29.561l-176.622-759.561h-45.142c-15.914 0-28.83-15.012-28.83-33.51s12.916-33.51 28.83-33.51h66.843zM159.473 1.193l0.351 25.6h-0.351v-25.6zM160.19 1.193v25.605l-0.36-0.005 0.36-25.6zM197.495 68.214l-24.934 5.796-7.301-31.396h32.236v25.6zM374.119 827.775v25.6h-20.33l-4.605-19.802 24.935-5.798zM419.369 894.794v0zM353.436 894.794l-1.754-25.54 0.876-0.060h0.878v25.6zM350.154 894.794v-25.6h0.878l0.876 0.060-1.754 25.54zM284.833 894.794v0zM314.394 827.775l24.935-5.798 7.301 31.398h-32.236v-25.6zM137.772 68.214v-25.6h20.33l4.605 19.804-24.935 5.796zM159.836 26.793h-0.012l-0.702-51.195c0.231-0.005 0.47-0.005 0.714-0.005v51.2zM159.83 26.793h0.006v-51.2c0.245 0 0.483 0 0.714 0.005l-0.72 51.195zM160.19-24.407h66.982v51.2h-66.982v-51.2zM227.173-24.407c33.53 0 54.43 30.223 54.43 59.11h-51.2c0-3.343-1.174-5.74-2.253-6.994-1.035-1.203-1.46-0.916-0.977-0.916v-51.2zM281.603 34.703c0 28.887-20.9 59.11-54.43 59.11v-51.2c-0.483 0-0.058 0.287 0.977-0.916 1.079-1.254 2.253-3.651 2.253-6.994h51.2zM227.173 93.814h-29.678v-51.2h29.678v51.2zM349.184 833.573l-176.624-759.563 49.869-11.592 176.624 759.559-49.87 11.596zM374.119 802.175h45.25v51.2h-45.25v-51.2zM419.369 802.175c33.531 0 54.43 30.222 54.43 59.109h-51.2c0-3.344-1.174-5.741-2.253-6.995-1.035-1.203-1.459-0.914-0.977-0.914v-51.2zM473.799 861.284c0 28.887-20.899 59.109-54.43 59.109v-51.2c-0.482 0-0.058 0.288 0.977-0.914 1.079-1.254 2.253-3.652 2.253-6.995h51.2zM419.369 920.394h-65.933v-51.2h65.933v51.2zM351.908 869.254c-0.075-0.005-0.152-0.005-0.226 0l3.507 51.080c-2.277 0.156-4.545 0.154-6.79 0l3.509-51.080zM350.154 920.394h-65.321v-51.2h65.321v51.2zM284.833 920.394c-33.53 0-54.43-30.222-54.43-59.109h51.2c0 3.343 1.174 5.741 2.253 6.995 1.035 1.203 1.46 0.914 0.977 0.914v51.2zM230.403 861.284c0-28.887 20.9-59.109 54.43-59.109v51.2c0.483 0 0.058-0.289-0.977 0.914-1.079 1.254-2.253 3.651-2.253 6.995h-51.2zM284.833 802.175h29.561v51.2h-29.561v-51.2zM162.707 62.418l176.622 759.559-49.87 11.596-176.622-759.563 49.87-11.592zM137.772 93.814h-45.142v-51.2h45.142v51.2zM92.63 93.814c-33.53 0-54.43-30.223-54.43-59.11h51.2c0 3.343 1.174 5.74 2.253 6.994 1.035 1.203 1.46 0.916 0.977 0.916v51.2zM38.2 34.703c0-28.887 20.9-59.11 54.43-59.11v51.2c0.483 0 0.058-0.287-0.977 0.916-1.079 1.254-2.253 3.651-2.253 6.994h-51.2zM92.63-24.407h66.843v51.2h-66.843v-51.2z" />
<glyph unicode="&#xe946;" glyph-name="text-left" horiz-adv-x="1365" d="M69.889 887.253c0 26.37 19.595 47.747 43.768 47.747h1137.978c24.172 0 43.77-21.377 43.77-47.747s-19.598-47.747-43.77-47.747h-1137.978c-24.173 0-43.768 21.377-43.768 47.747zM69.889 447.919c0 26.37 19.595 47.747 43.768 47.747h612.757c24.172 0 43.77-21.377 43.77-47.747s-19.598-47.747-43.77-47.747h-612.757c-24.173 0-43.768 21.377-43.768 47.747zM113.657 56.519c-24.173 0-43.768-21.379-43.768-47.747 0-26.374 19.595-47.753 43.768-47.753h962.908c24.172 0 43.765 21.379 43.765 47.753 0 26.368-19.593 47.747-43.765 47.747h-962.908zM113.657 935v0zM1251.635 935v0zM1251.635 839.505v0zM113.657 839.505v0zM113.657 495.667v0zM726.414 495.667v0zM726.414 400.172v0zM113.657 400.172v0zM113.657 56.519v0zM113.657-38.98v0zM1076.565-38.98v0zM1076.565 56.519v0zM113.657 949.222c-33.167 0-57.99-28.935-57.99-61.969h28.445c0 19.705 14.368 33.525 29.546 33.525v28.444zM1251.635 949.222h-1137.978v-28.444h1137.978v28.444zM1309.628 887.253c0 33.035-24.826 61.969-57.993 61.969v-28.444c15.178 0 29.548-13.82 29.548-33.525h28.444zM1251.635 825.283c33.166 0 57.993 28.935 57.993 61.97h-28.444c0-19.706-14.37-33.525-29.548-33.525v-28.444zM113.657 825.283h1137.978v28.444h-1137.978v-28.444zM55.667 887.253c0-33.035 24.824-61.97 57.99-61.97v28.444c-15.178 0-29.546 13.819-29.546 33.525h-28.445zM113.657 509.889c-33.167 0-57.99-28.935-57.99-61.97h28.445c0 19.706 14.368 33.525 29.546 33.525v28.444zM726.414 509.889h-612.757v-28.444h612.757v28.444zM784.407 447.919c0 33.035-24.826 61.97-57.993 61.97v-28.444c15.178 0 29.548-13.819 29.548-33.525h28.444zM726.414 385.951c33.166 0 57.993 28.933 57.993 61.968h-28.444c0-19.706-14.37-33.525-29.548-33.525v-28.443zM113.657 385.951h612.757v28.443h-612.757v-28.443zM55.667 447.919c0-33.035 24.824-61.968 57.99-61.968v28.443c-15.178 0-29.546 13.819-29.546 33.525h-28.445zM84.111 8.772c0 19.701 14.368 33.525 29.546 33.525v28.444c-33.167 0-57.99-28.939-57.99-61.969h28.445zM113.657-24.758c-15.178 0-29.546 13.824-29.546 33.53h-28.445c0-33.035 24.824-61.975 57.99-61.975v28.444zM1076.565-24.758h-962.908v-28.444h962.908v28.444zM1106.108 8.772c0-19.706-14.364-33.53-29.542-33.53v-28.444c33.166 0 57.987 28.939 57.987 61.975h-28.444zM1076.565 42.297c15.178 0 29.542-13.824 29.542-33.525h28.444c0 33.030-24.821 61.969-57.987 61.969v-28.444zM113.657 42.297h962.908v28.444h-962.908v-28.444z" />
<glyph unicode="&#xe947;" glyph-name="alert" d="M512 864c-229.75 0-416-186.25-416-416s186.25-416 416-416c229.75 0 416 186.25 416 416v0c-0.268 229.643-186.358 415.733-415.975 416h-0.025zM480 640c0 17.673 14.327 32 32 32s32-14.327 32-32v0-224c0-17.673-14.327-32-32-32s-32 14.327-32 32v0zM512 224c-26.51 0-48 21.49-48 48s21.49 48 48 48c26.51 0 48-21.49 48-48v0c0-26.51-21.49-48-48-48v0z" />
<glyph unicode="&#xe948;" glyph-name="arrow-bold-up" horiz-adv-x="717" d="M359.322-20.101c35.346 0 64 28.657 64 64v659.201l182.226-191.338c24.376-25.595 64.886-26.584 90.486-2.207 25.595 24.377 26.583 64.887 2.207 90.483l-292.574 307.2c-12.080 12.684-28.829 19.862-46.345 19.862s-34.265-7.179-46.345-19.862l-292.572-307.2c-24.377-25.595-23.389-66.106 2.207-90.483s66.106-23.389 90.483 2.207l182.226 191.338v-659.201c0-35.343 28.654-64 64-64z" />
<glyph unicode="&#xe949;" glyph-name="arrow-bottom" d="M208.747 220.026l271.529-271.533c16.663-16.657 43.678-16.657 60.34 0l271.529 271.533c16.662 16.662 16.662 43.677 0 60.339s-43.678 16.663-60.34 0l-198.692-198.693v835.661c0 23.564-19.103 42.667-42.667 42.667s-42.667-19.102-42.667-42.667v-835.661l-198.693 198.693c-16.662 16.663-43.678 16.663-60.34 0s-16.662-43.677 0-60.339z" />
<glyph unicode="&#xe94a;" glyph-name="arrow-left" d="M261.535 684.131c15.209-14.402 15.863-38.407 1.46-53.615l-136.921-144.589h860.001c20.946 0 37.926-16.98 37.926-37.926s-16.979-37.926-37.926-37.926h-860.001l136.921-144.589c14.402-15.208 13.749-39.212-1.46-53.616-15.209-14.4-39.214-13.748-53.616 1.46l-197.531 208.593c-13.851 14.626-13.851 37.529 0 52.155l197.531 208.593c14.402 15.209 38.406 15.863 53.616 1.46z" />
<glyph unicode="&#xe94b;" glyph-name="arrow-top" d="M208.747 675.974l271.529 271.529c16.663 16.662 43.678 16.662 60.34 0l271.529-271.529c16.662-16.662 16.662-43.677 0-60.339s-43.678-16.663-60.34 0l-198.692 198.692v-835.66c0-23.561-19.103-42.667-42.667-42.667s-42.667 19.106-42.667 42.667v835.66l-198.693-198.692c-16.662-16.663-43.678-16.663-60.34 0s-16.662 43.677 0 60.339z" />
<glyph unicode="&#xe94c;" glyph-name="bullets-list" horiz-adv-x="1195" d="M91.026 664.178c50.268 0 91.018 40.751 91.018 91.018 0 50.276-40.751 91.026-91.018 91.026-50.276 0-91.026-40.751-91.026-91.026 0-50.268 40.751-91.018 91.026-91.018zM91.026 300.066c50.268 0 91.018 40.75 91.018 91.028 0 50.266-40.751 91.017-91.018 91.017-50.276 0-91.026-40.751-91.026-91.017 0-50.278 40.751-91.028 91.026-91.028zM182.044 27.022c0-50.267-40.751-91.022-91.018-91.022-50.276 0-91.026 40.755-91.026 91.022s40.751 91.022 91.026 91.022c50.268 0 91.018-40.755 91.018-91.022zM261.556 868.944c0 31.419 25.47 56.889 56.889 56.889h819.282c31.42 0 56.889-25.47 56.889-56.889s-25.469-56.889-56.889-56.889h-819.282c-31.419 0-56.889 25.47-56.889 56.889zM261.556 504.833c0 31.419 25.47 56.889 56.889 56.889h819.282c31.42 0 56.889-25.47 56.889-56.889s-25.469-56.889-56.889-56.889h-819.282c-31.419 0-56.889 25.47-56.889 56.889zM318.445 197.655c-31.419 0-56.889-25.469-56.889-56.889s25.47-56.889 56.889-56.889h819.282c31.42 0 56.889 25.469 56.889 56.889s-25.469 56.889-56.889 56.889h-819.282z" />
<glyph unicode="&#xe94d;" glyph-name="search" d="M469.333 874.667c-212.078 0-384-171.922-384-384s171.922-384 384-384c211.981 0.239 383.761 172.019 384 384 0 212.078-171.921 384-384 384zM469.333 192c-164.948 0-298.667 133.717-298.667 298.667 0 164.948 133.719 298.667 298.667 298.667 164.949 0 298.667-133.719 298.667-298.667-0.183-164.873-133.794-298.483-298.667-298.667zM924.698 102.477l-174.861 174.857c-19.849-24.811-42.359-47.322-67.17-67.17l174.857-174.861c0.038-0.038 0.077-0.077 0.111-0.111 18.581-18.522 48.657-18.47 67.179 0.111 18.517 18.581 18.466 48.657-0.115 67.174z" />
<glyph unicode="&#xe94e;" glyph-name="country" d="M163.556 935.111c0 13.746-11.143 24.889-24.889 24.889s-24.889-11.143-24.889-24.889v-49.749c0-0.001 0-0.001 0-0.002v-497.776c0 0 0 0 0 0v-398.251c0-13.744 11.143-24.889 24.889-24.889s24.889 11.145 24.889 24.889v354.014c13.784-7.896 30.599-17.072 49.27-26.334 49.589-24.593 115.842-51.621 173.757-53.885 56.399-2.202 97.914 13.392 136.327 30.703 6.363 2.867 12.586 5.746 18.748 8.602 31.268 14.478 60.981 28.24 99.578 35.812 43.205 8.476 101.625 2.992 151.414-5.507 24.451-4.17 46.017-8.92 61.468-12.629 7.714-1.849 13.875-3.436 18.079-4.551 2.099-0.552 3.709-0.996 4.779-1.286l1.189-0.33 0.279-0.080 0.063-0.017c7.504-2.145 15.582-0.637 21.817 4.062 6.235 4.705 9.899 12.060 9.899 19.871v497.777c0 11.114-7.367 20.881-18.057 23.933l-6.832-23.933c6.832 23.933 6.781 23.947 6.781 23.948l-0.114 0.031-0.381 0.108-1.417 0.393c-1.217 0.337-2.987 0.819-5.262 1.42-4.534 1.203-11.076 2.884-19.211 4.836-16.242 3.897-38.918 8.895-64.711 13.296-50.694 8.651-116.719 15.61-169.366 5.282-44.988-8.826-80.668-25.407-112.057-39.993l-0.005-0.002c-5.849-2.719-11.55-5.367-17.134-7.884-35.788-16.129-68.927-28.101-113.928-26.341-46.689 1.826-104.88 24.581-153.584 48.738-23.876 11.843-44.616 23.583-59.379 32.36-4.631 2.753-8.663 5.209-12.009 7.277v36.088zM163.556 841.124c13.784-7.893 30.599-17.071 49.27-26.332 49.589-24.596 115.842-51.62 173.757-53.885 56.399-2.206 97.914 13.388 136.327 30.699 6.363 2.868 12.586 5.75 18.748 8.603 31.268 14.48 60.981 28.239 99.578 35.811 43.205 8.477 101.625 2.992 151.414-5.503 24.451-4.172 46.017-8.924 61.468-12.631 2.241-0.538 4.352-1.054 6.326-1.543v-446.577c-15.718 3.681-36.324 8.101-59.426 12.043-50.694 8.647-116.719 15.609-169.366 5.279-44.988-8.823-80.668-25.407-112.057-39.993h-0.005c-5.85-2.719-11.55-5.37-17.134-7.885-35.788-16.128-68.927-28.103-113.928-26.34-46.689 1.826-104.88 24.576-153.584 48.737-23.876 11.844-44.616 23.58-59.379 32.36-4.631 2.753-8.663 5.208-12.009 7.277v439.879z" />
<glyph unicode="&#xe94f;" glyph-name="crop" d="M192 928h-64v-224h-128v-64h128v-544h640v-128h64v128h192v64h-832v768zM224 672h544v-480h64v544h-608v-64z" />
<glyph unicode="&#xe950;" glyph-name="desctop" d="M121.905 864.693h780.193c40.392 0 73.142-32.747 73.142-73.143v-487.617c0-40.397-32.749-73.146-73.142-73.146h-390.051c-0.014 0-0.033 0-0.047 0s-0.033 0-0.047 0h-390.049c-40.396 0-73.143 32.749-73.143 73.146v487.617c0 40.396 32.747 73.143 73.143 73.143zM536.381 182.025h365.717c67.323 0 121.903 54.579 121.903 121.907v487.617c0 67.326-54.579 121.905-121.903 121.905h-780.193c-67.326 0-121.905-54.579-121.905-121.905v-487.617c0-67.328 54.579-121.907 121.905-121.907h365.715v-146.283h-170.667c-13.465 0-24.381-10.92-24.381-24.385 0-13.461 10.916-24.381 24.381-24.381h390.097c13.466 0 24.381 10.92 24.381 24.381 0 13.466-10.915 24.385-24.381 24.385h-170.668v146.283z" />
<glyph unicode="&#xe951;" glyph-name="alert-o" d="M512 21.333c-235.648 0-426.667 191.019-426.667 426.667s191.019 426.667 426.667 426.667 426.667-191.019 426.667-426.667-191.019-426.667-426.667-426.667zM512 106.667c188.513 0 341.333 152.82 341.333 341.333s-152.82 341.333-341.333 341.333v0c-188.513 0-341.333-152.82-341.333-341.333s152.82-341.333 341.333-341.333v0zM512 661.333c23.564 0 42.667-19.103 42.667-42.667v0-213.333c0-23.564-19.103-42.667-42.667-42.667s-42.667 19.103-42.667 42.667v0 213.333c0 23.564 19.103 42.667 42.667 42.667v0zM512 234.667c-23.564 0-42.667 19.103-42.667 42.667s19.103 42.667 42.667 42.667v0c23.564 0 42.667-19.103 42.667-42.667s-19.103-42.667-42.667-42.667v0z" />
<glyph unicode="&#xe952;" glyph-name="drag-and-drop" d="M257.832 788.467c-5.552 7.268-14.175 11.533-23.32 11.533s-17.764-4.264-23.31-11.533l-205.189-268.889c-9.826-12.877-7.35-31.284 5.53-41.116s31.287-7.363 41.113 5.514l152.569 199.933 0.224-558.579c0.006-16.198 13.145-29.331 29.345-29.331s29.328 13.133 29.322 29.331l-0.225 558.579 152.73-199.933c9.836-12.876 28.245-15.345 41.117-5.514s15.334 28.239 5.498 41.116l-205.405 268.889zM751.814 107.526c5.555-7.264 14.176-11.526 23.315-11.526s17.754 4.262 23.296 11.526l205.28 268.886c9.824 12.872 7.354 31.281-5.53 41.117-12.877 9.836-31.283 7.375-41.114-5.498l-152.685-199.997-0.384 558.632c-0.013 16.2-13.158 29.333-29.357 29.333s-29.325-13.133-29.312-29.333l0.39-558.632-152.963 199.997c-9.845 12.872-28.255 15.334-41.121 5.498s-15.315-28.245-5.469-41.117l205.653-268.886z" />
<glyph unicode="&#xe953;" glyph-name="dragndrop" d="M365.714 813.714c40.395 0 73.143 32.748 73.143 73.143s-32.748 73.143-73.143 73.143c-40.396 0-73.143-32.747-73.143-73.143s32.747-73.143 73.143-73.143zM658.286 813.714c40.395 0 73.143 32.748 73.143 73.143s-32.748 73.143-73.143 73.143c-40.395 0-73.143-32.747-73.143-73.143s32.748-73.143 73.143-73.143zM438.857 594.286c0-40.395-32.748-73.143-73.143-73.143s-73.143 32.748-73.143 73.143c0 40.395 32.747 73.143 73.143 73.143s73.143-32.748 73.143-73.143zM658.286 521.143c40.395 0 73.143 32.748 73.143 73.143s-32.748 73.143-73.143 73.143c-40.395 0-73.143-32.748-73.143-73.143s32.748-73.143 73.143-73.143zM438.857 301.714c0-40.396-32.748-73.143-73.143-73.143s-73.143 32.747-73.143 73.143c0 40.396 32.747 73.143 73.143 73.143s73.143-32.747 73.143-73.143zM658.286 228.571c40.395 0 73.143 32.747 73.143 73.143s-32.748 73.143-73.143 73.143c-40.395 0-73.143-32.747-73.143-73.143s32.748-73.143 73.143-73.143zM438.857 9.143c0-40.397-32.748-73.143-73.143-73.143s-73.143 32.746-73.143 73.143c0 40.397 32.747 73.143 73.143 73.143s73.143-32.746 73.143-73.143zM658.286-64c40.395 0 73.143 32.746 73.143 73.143s-32.748 73.143-73.143 73.143c-40.395 0-73.143-32.746-73.143-73.143s32.748-73.143 73.143-73.143z" />
<glyph unicode="&#xe954;" glyph-name="bold-plus" horiz-adv-x="1097" d="M669.257 857.6c0 56.554-45.846 102.4-102.4 102.4s-102.4-45.846-102.4-102.4v-307.2h-307.2c-56.554 0-102.4-45.846-102.4-102.4s45.846-102.4 102.4-102.4h307.2v-307.2c0-56.554 45.846-102.4 102.4-102.4s102.4 45.846 102.4 102.4v307.2h307.2c56.554 0 102.4 45.846 102.4 102.4s-45.846 102.4-102.4 102.4h-307.2v307.2z" />
<glyph unicode="&#xe955;" glyph-name="info" d="M48 448c0-256 208-464 464-464s464 208 464 464-208 464-464 464-464-208-464-464zM488 632c0 13.6 10.4 24 24 24s24-10.4 24-24v-40c0-13.6-10.4-24-24-24s-24 10.4-24 24v40zM488 472c0 13.6 10.4 24 24 24s24-10.4 24-24v-208c0-13.6-10.4-24-24-24s-24 10.4-24 24v208z" />
<glyph unicode="&#xe956;" glyph-name="page" horiz-adv-x="884" d="M223.584 934.199l391.868 2.521c144.435 0.929 225.345-86.011 226.178-235.867l2.83-507.545c0.847-152.315-79.095-238.322-223.53-239.253l-391.868-2.523c-142.141-0.912-225.378 84.047-226.227 236.362l-2.83 507.544c-0.835 149.856 81.437 237.846 223.578 238.76zM220.888 725.090v0.528h154.418c22.266 0 40.331-18.472 40.311-41.115-0.021-23.276-18.119-41.749-40.386-41.749h-154.418c-22.266 0-40.28 18.473-40.259 41.168s18.067 41.168 40.333 41.168zM220.598 404.182h405.029c22.216 0 40.313 18.474 40.336 41.169 0.019 22.696-18.046 41.221-40.262 41.221h-405.029c-22.266 0-40.313-18.525-40.333-41.221s17.993-41.169 40.259-41.169zM220.407 162.984h405.029c20.615 2.109 36.184 20.108 36.203 41.169 0.019 21.639-15.518 39.582-36.129 41.695h-405.029c-15.497 1.583-30.485-5.809-38.764-19.53-8.278-13.196-8.293-30.613-0.040-44.335 8.254-13.196 23.229-21.113 38.729-19z" />
<glyph unicode="&#xe957;" glyph-name="input" d="M136.533 891.733c-37.702 0-68.267-30.564-68.267-68.267v-750.933c0-37.704 30.564-68.267 68.267-68.267h750.933c37.704 0 68.267 30.563 68.267 68.267v750.933c0 37.702-30.563 68.267-68.267 68.267h-750.933zM0 823.467c0 75.405 61.128 136.533 136.533 136.533h750.933c75.407 0 136.533-61.128 136.533-136.533v-750.933c0-75.407-61.126-136.533-136.533-136.533h-750.933c-75.405 0-136.533 61.126-136.533 136.533v750.933zM237.6 692.266v-547.2h-37.6v547.2h37.6z" />
<glyph unicode="&#xe958;" glyph-name="members" d="M346.378 688.96c0 98.484 76.43 175.974 167.873 175.974s167.873-77.49 167.873-175.974c0-98.484-76.43-175.975-167.873-175.975s-167.873 77.491-167.873 175.975zM514.25 934.398c-132.348 0-237.337-111.182-237.337-245.438s104.989-245.439 237.337-245.439c132.348 0 237.334 111.183 237.334 245.439s-104.986 245.438-237.334 245.438zM336.556 352.444c-62.925 0-122.731-26.854-166.422-73.75-43.613-46.816-67.727-109.811-67.727-175.034v-107.021c0-19.187 15.55-34.733 34.732-34.733s34.732 15.546 34.732 34.733v107.021c0 48.32 17.906 94.214 49.089 127.68 31.105 33.389 72.745 51.642 115.597 51.642h348.981c42.854 0 84.492-18.253 115.596-51.642 31.181-33.466 49.088-79.36 49.088-127.68v-107.021c0-19.187 15.552-34.733 34.733-34.733s34.733 15.546 34.733 34.733v107.021c0 65.222-24.115 128.218-67.725 175.034-43.693 46.896-103.501 73.75-166.425 73.75h-348.981z" />
<glyph unicode="&#xe959;" glyph-name="mobile" d="M258.221-6.713c-35.856-0.171-55.631 31.351-55.797 69.814l-3.322 772.504c-0.165 38.458 19.337 66.248 55.193 66.423l221.063 1.077h235.744c35.854 0.175 56.721-26.259 56.886-64.717l1.661-386.253-5.126-386.252c0.165-38.457-17.556-71.748-53.415-71.925l-452.888-0.671zM145.546 62.868c0.293-68.204 51.087-122.761 112.903-122.459l452.89 0.671c61.815 0.302 115.496 56.832 115.2 125.036l-1.661 386.252v386.020c-0.29 68.203-52.19 121.912-114.002 121.611l-456.807-1.077c-61.815-0.301-112.138-55.347-111.845-123.55l3.322-772.503zM489.785 41.62c26.284 0 47.591 21.271 47.591 47.502 0 26.237-21.307 47.502-47.591 47.502s-47.59-21.265-47.59-47.502c0-26.231 21.307-47.502 47.59-47.502z" />
<glyph unicode="&#xe95a;" glyph-name="more" d="M512 755.2c56.554 0 102.4 45.846 102.4 102.4s-45.846 102.4-102.4 102.4c-56.554 0-102.4-45.846-102.4-102.4s45.846-102.4 102.4-102.4zM512 345.6c56.554 0 102.4 45.846 102.4 102.4s-45.846 102.4-102.4 102.4c-56.554 0-102.4-45.846-102.4-102.4s45.846-102.4 102.4-102.4zM614.4 38.4c0-56.552-45.846-102.4-102.4-102.4s-102.4 45.848-102.4 102.4c0 56.552 45.846 102.4 102.4 102.4s102.4-45.848 102.4-102.4z" />
<glyph unicode="&#xe95b;" glyph-name="text-right" horiz-adv-x="1325" d="M1302.118 839.706c0 33.267-26.967 60.235-60.235 60.235h-1158.53c-33.267 0-60.235-26.969-60.235-60.235s26.968-60.235 60.235-60.235h1158.53c33.268 0 60.235 26.968 60.235 60.235zM1302.118 420.165c0 33.267-26.967 60.235-60.235 60.235h-810.971c-33.267 0-60.235-26.969-60.235-60.235s26.968-60.235 60.235-60.235h810.971c33.268-0.001 60.235 26.968 60.235 60.235zM1241.883 60.826c33.268 0 60.235-26.967 60.235-60.235s-26.967-60.235-60.235-60.235h-1158.53c-33.267 0-60.235 26.967-60.235 60.235s26.968 60.235 60.235 60.235h1158.53z" />
<glyph unicode="&#xe95c;" glyph-name="verified-o" d="M954.182 448c0 244.211-197.972 442.182-442.182 442.182s-442.182-197.971-442.182-442.182c0-244.21 197.971-442.182 442.182-442.182s442.182 197.972 442.182 442.182zM512 936.727c269.917 0 488.727-218.811 488.727-488.727s-218.81-488.727-488.727-488.727c-269.917 0-488.727 218.81-488.727 488.727s218.811 488.727 488.727 488.727zM768.005 610.91c9.090 9.088 9.090 23.824 0 32.913-9.086 9.088-23.822 9.088-32.912 0l-246.365-325.819-169.725 169.728c-9.088 9.086-23.824 9.086-32.913 0-9.088-9.090-9.088-23.827 0-32.917l186.179-186.177c9.090-9.090 23.827-9.090 32.917 0l262.819 342.272z" />
<glyph unicode="&#xe95d;" glyph-name="autoplay" horiz-adv-x="1067" d="M696.759 108.361c-48.256-28.433-102.379-46.349-158.822-52.087-87.543-8.9-175.533 12.019-249.706 59.371-74.173 47.347-130.188 118.353-158.967 201.515-28.78 83.157-28.639 173.598 0.399 256.666s85.273 153.9 159.594 201.018c74.32 47.119 162.374 67.763 249.892 58.59s169.378-47.627 232.311-109.132c16.623-16.245 31.671-33.847 45.018-52.565l-37.389-16.052c-38.878-16.69-45.295-68.573-11.524-93.196l144.474-105.341c32.358-23.595 78.933-5.205 86.507 34.155l35.11 182.435c8.179 42.509-34.752 76.314-74.982 59.043l-51.298-22.022c-19.439 29.901-42.214 57.761-68.036 82.999-78.583 76.794-180.791 124.808-290.065 136.262-109.278 11.454-219.22-14.324-312.017-73.156s-163.011-147.272-199.268-250.992c-36.257-103.719-36.433-216.645-0.499-320.474 35.934-103.834 105.873-192.491 198.486-251.614 92.613-59.119 202.475-85.239 311.787-74.125 71.125 7.232 139.311 29.952 199.983 66.031 15.339 9.122 30.195 19.098 44.501 29.892 3.209 2.423 6.391 4.885 9.545 7.39 20.996 16.678 21.312 47.637 2.628 66.876-16.401 16.887-41.971 19.081-62.451 8.439-2.854-1.481-5.606-3.213-8.222-5.188-11.874-8.96-24.226-17.216-36.988-24.738zM366.97 540.861c0 50.044 54.863 79.893 95.823 52.134l175.782-119.135c37.922-25.702 36.233-82.91-3.136-106.257l-175.782-104.239c-41.086-24.367-92.687 5.764-92.687 54.118v223.379z" />
<glyph unicode="&#xe95e;" glyph-name="drag" horiz-adv-x="731" d="M256 832c0-60.594-49.121-109.714-109.714-109.714s-109.714 49.121-109.714 109.714c0 60.594 49.121 109.714 109.714 109.714s109.714-49.121 109.714-109.714zM256 448c0-60.594-49.121-109.714-109.714-109.714s-109.714 49.121-109.714 109.714c0 60.594 49.121 109.714 109.714 109.714s109.714-49.121 109.714-109.714zM146.286-45.714c60.594 0 109.714 49.123 109.714 109.714s-49.121 109.714-109.714 109.714c-60.594 0-109.714-49.123-109.714-109.714s49.121-109.714 109.714-109.714zM694.857 448c0-60.594-49.121-109.714-109.714-109.714s-109.714 49.121-109.714 109.714c0 60.594 49.121 109.714 109.714 109.714s109.714-49.121 109.714-109.714zM585.143 722.286c60.594 0 109.714 49.121 109.714 109.714s-49.121 109.714-109.714 109.714c-60.594 0-109.714-49.121-109.714-109.714s49.121-109.714 109.714-109.714zM694.857 64c0-60.592-49.121-109.714-109.714-109.714s-109.714 49.123-109.714 109.714c0 60.592 49.121 109.714 109.714 109.714s109.714-49.123 109.714-109.714z" />
<glyph unicode="&#xe95f;" glyph-name="ok-o" d="M973.312 832.655c23.927-19.13 27.819-54.034 8.687-77.96l-545.824-682.667c-10.362-12.96-25.983-20.601-42.575-20.824s-32.414 6.994-43.121 19.672l-307.511 364.088c-19.766 23.404-16.818 58.399 6.585 78.165s58.399 16.817 78.165-6.585l263.961-312.527 503.673 629.953c19.132 23.926 54.033 27.814 77.961 8.684z" />
<glyph unicode="&#xe960;" glyph-name="arrow-with-star" horiz-adv-x="819" d="M207.872 581.272l-105.472 48.128 105.472 48.128 48.128 105.472 48.128-105.472 105.472-48.128-105.472-48.128-48.128-105.472-48.128 105.472zM256-36.198l48.128 105.472 105.472 48.128-105.472 48.128-48.128 105.472-48.128-105.472-105.472-48.128 105.472-48.128 48.128-105.472zM70.144 405.658l-70.144-32.256 70.144-32.256 32.256-70.144 32.256 70.144 70.144 32.256-70.144 32.256-32.256 70.142-32.256-70.142zM819.2-5.99c0-39.936-43.008-64-77.312-44.032-167.936 97.792-281.088 280.576-281.088 474.624 0 139.774 55.296 269.822 140.8 371.198l-97.28 97.28c-15.872 15.872-4.608 43.52 18.432 43.52h270.848c14.336 0 25.6-11.264 25.6-25.6v-270.848c0-23.040-27.648-34.304-43.52-17.92l-100.864 100.864c-68.608-84.48-111.616-189.952-111.616-298.494 0-160.256 95.232-307.712 230.912-386.56 15.36-9.216 25.088-26.112 25.088-44.032z" />
<glyph unicode="&#xe961;" glyph-name="crown" horiz-adv-x="983" d="M863.502 695.478c-7.688 6.724-17.027 11.048-26.948 12.48-9.925 1.431-20.029-0.088-29.168-4.384l-170.013-79.2-98.787 186.56c-4.719 8.71-11.559 15.953-19.825 20.992-8.262 5.039-17.654 7.694-27.214 7.694s-18.952-2.655-27.214-7.694c-8.266-5.039-15.106-12.283-19.825-20.992l-98.786-186.56-170.016 79.2c-9.156 4.29-19.275 5.811-29.212 4.391s-19.298-5.724-27.023-12.425c-7.725-6.701-13.507-15.533-16.691-25.497s-3.645-20.662-1.329-30.885l85.344-381.216c1.632-7.381 4.677-14.336 8.951-20.447s9.688-11.252 15.913-15.106c8.428-5.284 18.065-8.081 27.888-8.094 4.775 0.008 9.526 0.721 14.112 2.109 155.562 45.060 319.878 45.060 475.44 0 14.205-3.912 29.311-1.757 42 5.984 6.263 3.805 11.706 8.929 15.987 15.049s7.303 13.103 8.876 20.505l85.68 381.216c2.29 10.226 1.806 20.92-1.401 30.872s-9.007 18.767-16.74 25.448zM285.388 62.861c0.141 0.041 0.306 0.090 0.493 0.143 1.391 0.401 3.639 0.995 6.79 1.753 6.258 1.507 15.351 3.469 26.975 5.595 23.226 4.248 56.035 9.052 95.807 12.173 79.696 6.255 186.241 5.665 299.25-18.96 22.102-4.817 43.926 9.196 48.742 31.298 4.817 22.106-9.196 43.926-31.298 48.742-122.847 26.771-237.773 27.283-323.102 20.591-42.74-3.355-78.332-8.54-104.138-13.259-12.892-2.359-23.473-4.624-31.389-6.529-3.937-0.946-7.4-1.847-10.265-2.671-0.033-0.012-0.068-0.020-0.104-0.029-1.792-0.516-6.293-1.81-10.361-3.748-20.421-9.732-29.085-34.177-19.353-54.6 9.316-19.546 32.109-28.32 51.952-20.5zM284.67 62.636c-0.005 0 0.084 0.029 0.283 0.090-0.178-0.061-0.278-0.090-0.283-0.090z" />
</font>
</defs>
</svg>
